<?xml version="1.0" standalone="no"?>
<!DOCTYPE svg PUBLIC "-//W3C//DTD SVG 1.1//EN" "http://www.w3.org/Graphics/SVG/1.1/DTD/svg11.dtd" >
<svg xmlns="http://www.w3.org/2000/svg" xmlns:xlink="http://www.w3.org/1999/xlink" version="1.1">
<metadata></metadata>
<defs>
<font id="halebopmedium" horiz-adv-x="565" >
<font-face units-per-em="1000" ascent="750" descent="-250" />
<missing-glyph horiz-adv-x="220" />
<glyph unicode="fi" horiz-adv-x="573" d="M6 386v77h76v41q0 61 39.5 100.5t99.5 39.5h107v-85h-102q-25 0 -40.5 -15.5t-15.5 -38.5v-42h303v-386h80v-77h-248v77h80v309h-215v-386h-88v386h-76zM377 596v10q0 19 14 32.5t32 13.5h11q18 0 32 -13.5t14 -32.5v-10q0 -19 -14 -33t-32 -14h-11q-18 0 -32 14t-14 33z " />
<glyph unicode="fl" horiz-adv-x="496" d="M6 386v77h76v41q0 61 39.5 100.5t99.5 39.5h216v-519q0 -72 8 -125h-88q-8 46 -8 109v450h-123q-25 0 -40.5 -15.5t-15.5 -38.5v-42h114v-77h-114v-386h-88v386h-76z" />
<glyph horiz-adv-x="0" />
<glyph horiz-adv-x="0" />
<glyph unicode="&#xd;" horiz-adv-x="220" />
<glyph unicode=" "  horiz-adv-x="220" />
<glyph unicode="&#x09;" horiz-adv-x="220" />
<glyph unicode="&#xa0;" horiz-adv-x="220" />
<glyph unicode="!" horiz-adv-x="193" d="M42 46v10q0 20 14.5 34.5t33.5 14.5h12q19 0 34 -14.5t15 -34.5v-10q0 -20 -15 -34.5t-34 -14.5h-12q-19 0 -33.5 14.5t-14.5 34.5zM51 473v173h91v-173l-8 -266h-75z" />
<glyph unicode="&#x22;" horiz-adv-x="277" d="M54 646h65l-6 -193h-54zM159 646h64l-6 -193h-53z" />
<glyph unicode="#" horiz-adv-x="509" d="M38 180v73h90l16 140h-83v73h91l21 187h73l-21 -187h96l21 187h75l-21 -187h75v-73h-83l-16 -140h77v-73h-85l-21 -187h-75l21 187h-96l-21 -187h-73l21 187h-82zM201 253h96l16 140h-96z" />
<glyph unicode="$" horiz-adv-x="513" d="M37 121l69 50l65 -66q17 -17 39 -17h121l44 44v83q0 19 -10.5 34t-28.5 19l-163 42q-47 12 -76.5 50t-29.5 90v67q0 31 23 54l51 52q19 21 54 21h36v81h67v-81h3q64 0 104 -46l67 -75l-69 -50l-65 66q-17 17 -39 17h-97l-44 -44v-65q0 -19 10.5 -34t28.5 -19l163 -42 q47 -12 76.5 -50t29.5 -90v-85q0 -28 -23 -53l-51 -52q-22 -22 -54 -22h-40v-79h-67v79h-23q-64 0 -104 46z" />
<glyph unicode="%" horiz-adv-x="593" d="M40 443v137q0 22 11 33l27 26q15 13 32 13h75q17 0 32 -13l27 -26q12 -12 12 -33v-137q0 -22 -13 -33l-27 -26q-13 -13 -33 -13h-71q-17 0 -32 13l-28 26q-12 12 -12 33zM88 0l352 652h68l-353 -652h-67zM100 448l18 -18h60l17 18v127l-18 18h-58l-19 -18v-127zM339 71 v138q0 22 11 33l27 26q13 13 32 13h75q19 0 32 -13l27 -26q11 -11 11 -33v-138q0 -22 -12 -32l-27 -27q-13 -12 -33 -12h-71q-19 0 -33 12l-27 27q-12 10 -12 32zM399 77l18 -18h59l18 18v126l-18 19h-59l-18 -19v-126z" />
<glyph unicode="&#x26;" horiz-adv-x="535" d="M53 136v110q0 30 22 54l27 27q-39 42 -39 102v96q0 30 22 54l52 52q20 21 54 21h113q36 0 78 -46l67 -75l-69 -50l-65 66q-17 17 -35 17h-83l-43 -44v-92q0 -23 14 -39t37 -16h295v-88h-53v-166q0 -29 -22 -53l-51 -52q-22 -22 -54 -22h-124q-62 0 -102.5 41t-40.5 103z M144 135q0 -24 15.5 -39.5t40.5 -15.5h113l43 44v161h-169l-43 -44v-106z" />
<glyph unicode="'" horiz-adv-x="219" d="M77 646h65l-6 -193h-54z" />
<glyph unicode="(" horiz-adv-x="254" d="M52 318q0 75 18 159.5t48 126.5q25 35 86 80l36 -25l-46 -70q-19 -29 -36.5 -121t-17.5 -150t17.5 -150t36.5 -122l46 -76l-36 -25q-58 46 -86 87q-29 44 -47.5 128.5t-18.5 157.5z" />
<glyph unicode=")" horiz-adv-x="254" d="M14 -30l46 76q18 31 36 123t18 149q0 58 -17.5 150t-36.5 121l-46 70l36 25q61 -45 86 -80q30 -42 48 -126.5t18 -159.5q0 -74 -18 -158.5t-48 -127.5q-28 -41 -86 -87z" />
<glyph unicode="*" horiz-adv-x="470" d="M108 530l22 63l28 -10l50 -25l-5 59v29h66v-29l-6 -58l49 24l27 10l23 -63l-28 -10l-52 -13l38 -36l19 -22l-51 -42l-19 22l-33 49l-33 -49l-20 -22l-50 42l19 22l36 36l-53 13z" />
<glyph unicode="+" horiz-adv-x="564" d="M75 274v75h170v170h75v-170h170v-75h-170v-170h-75v170h-170z" />
<glyph unicode="," horiz-adv-x="168" d="M32 46v10q0 20 13.5 34.5t31.5 14.5h13q19 0 32 -14.5t13 -34.5v-10q0 -24 -11 -48l-43 -93h-42l37 92q-18 1 -31 15t-13 34z" />
<glyph unicode="-" horiz-adv-x="228" d="M8 254v75h212v-75h-212z" />
<glyph unicode="." horiz-adv-x="194" d="M43 46v10q0 20 14.5 34.5t33.5 14.5h12q19 0 34 -14.5t15 -34.5v-10q0 -20 -15 -34.5t-34 -14.5h-12q-19 0 -33.5 14.5t-14.5 34.5z" />
<glyph unicode="/" horiz-adv-x="474" d="M0 -123l400 775h74l-399 -775h-75z" />
<glyph unicode="0" horiz-adv-x="526" d="M53 136v389q0 30 22 54l52 52q19 21 54 21h149q62 0 102.5 -41t40.5 -103v-389q0 -29 -22 -53l-51 -52q-22 -22 -54 -22h-150q-62 0 -102.5 41t-40.5 103zM144 135q0 -24 15.5 -39.5t40.5 -15.5h139l43 44v385q0 24 -15.5 39.5t-40.5 15.5h-139l-43 -44v-385z" />
<glyph unicode="1" horiz-adv-x="433" d="M52 574l87 55q26 17 64 17h64v-561h114v-85h-320v85h115v473l-84 -49z" />
<glyph unicode="2" horiz-adv-x="496" d="M33 531l90 100q19 21 54 21h122q62 0 102.5 -41t40.5 -103v-101q0 -36 -23 -53l-278 -213v-53h302v-88h-393v142q0 41 32 65l269 205v97q0 24 -15.5 39.5t-40.5 15.5h-111l-82 -83z" />
<glyph unicode="3" horiz-adv-x="508" d="M33 113l69 50l65 -66q17 -17 39 -17h114l43 44v102q0 23 -14 39t-37 16h-101v88h101l43 44v96q0 24 -15.5 39.5t-40.5 15.5h-106l-82 -83l-69 50l90 100q20 21 54 21h117q62 0 102.5 -41t40.5 -103v-100q0 -31 -22 -53l-22 -22q53 -41 53 -108v-106q0 -30 -23 -53 l-51 -52q-20 -22 -54 -22h-123q-64 0 -104 46z" />
<glyph unicode="4" horiz-adv-x="492" d="M20 141v68l263 437h121v-417h66v-88h-66v-141h-91v141h-293zM126 229h187v311z" />
<glyph unicode="5" horiz-adv-x="512" d="M40 113l69 50l65 -66q17 -17 39 -17h112l44 45v137q0 24 -15.5 39.5t-40.5 15.5h-235v327h366v-88h-278v-151h151q62 0 102.5 -41t40.5 -103v-141q0 -30 -23 -53l-51 -52q-21 -23 -54 -23h-121q-64 0 -104 46z" />
<glyph unicode="6" horiz-adv-x="519" d="M53 136v389q0 30 22 54l52 52q19 21 54 21h129q64 0 104 -46l48 -55l-69 -50l-46 46q-17 17 -39 17h-121l-43 -44v-115h179q62 0 102.5 -41t40.5 -103v-142q0 -29 -22 -53l-51 -52q-22 -22 -54 -22h-143q-62 0 -102.5 41t-40.5 103zM144 135q0 -24 15.5 -39.5t40.5 -15.5 h132l43 44v138q0 24 -15.5 39.5t-40.5 15.5h-175v-182z" />
<glyph unicode="7" horiz-adv-x="437" d="M20 556v88h395v-86q0 -29 -16 -61l-251 -497h-105l272 532q4 8 4 17v7h-299z" />
<glyph unicode="8" horiz-adv-x="510" d="M53 136v103q0 30 22 54l27 27q-39 42 -39 102v103q0 30 22 54l52 52q20 21 54 21h113q62 0 102.5 -41t40.5 -103v-103q0 -29 -22 -53l-18 -19q50 -42 50 -111v-103q0 -29 -22 -53l-51 -52q-22 -22 -54 -22h-134q-62 0 -102.5 41t-40.5 103zM144 135q0 -24 15.5 -39.5 t40.5 -15.5h123l43 44v99q0 23 -14 39t-37 16h-128l-43 -44v-99zM154 421q0 -23 14 -39t37 -16h108l43 44v99q0 24 -15.5 39.5t-40.5 15.5h-103l-43 -44v-99z" />
<glyph unicode="9" horiz-adv-x="519" d="M53 393v132q0 29 22 53l51 52q22 22 54 22h143q62 0 102.5 -41t40.5 -103v-389q0 -30 -22 -54l-52 -52q-20 -21 -54 -21h-129q-64 0 -104 46l-48 55l69 50l46 -46q17 -17 39 -17h121l43 44v125h-179q-62 0 -102.5 41t-40.5 103zM144 392q0 -24 15.5 -39.5t40.5 -15.5h175 v172q0 24 -15.5 39.5t-40.5 15.5h-132l-43 -44v-128z" />
<glyph unicode=":" horiz-adv-x="214" d="M52 46v10q0 20 14.5 34.5t33.5 14.5h12q19 0 34 -14.5t15 -34.5v-10q0 -20 -15 -34.5t-34 -14.5h-12q-19 0 -33.5 14.5t-14.5 34.5zM52 398v11q0 20 14.5 34.5t33.5 14.5h12q19 0 34 -14.5t15 -34.5v-11q0 -19 -15 -34t-34 -15h-12q-19 0 -33.5 15t-14.5 34z" />
<glyph unicode=";" horiz-adv-x="193" d="M35 398v11q0 20 14 34.5t34 14.5h12q19 0 34 -14.5t15 -34.5v-11q0 -19 -15 -34t-34 -15h-12q-19 0 -33.5 14.5t-14.5 34.5zM36 46v10q0 20 14 34.5t32 14.5h13q18 0 31.5 -14.5t13.5 -34.5v-10q0 -24 -11 -48l-44 -93h-42l38 92q-18 1 -31.5 15t-13.5 34z" />
<glyph unicode="&#x3c;" horiz-adv-x="564" d="M75 290v44l415 186v-74l-314 -134l314 -143v-74z" />
<glyph unicode="=" horiz-adv-x="564" d="M75 202v74h415v-74h-415zM75 346v75h415v-75h-415z" />
<glyph unicode="&#x3e;" horiz-adv-x="562" d="M74 95v74l314 143l-314 134v74l415 -186v-44z" />
<glyph unicode="?" horiz-adv-x="450" d="M20 556l72 74q20 22 54 22h114q62 0 102.5 -41t40.5 -103v-68q0 -36 -23 -53l-162 -121v-59h-91v51q0 49 24 67l161 121v63q0 24 -15.5 39.5t-40.5 15.5h-103l-64 -66zM118 46v10q0 20 14.5 34.5t33.5 14.5h12q19 0 34 -14.5t15 -34.5v-10q0 -20 -15 -34.5t-34 -14.5h-12 q-19 0 -33.5 14.5t-14.5 34.5z" />
<glyph unicode="@" horiz-adv-x="634" d="M21 149q0 137 89 226.5t223 89.5q121 0 200.5 -72.5t79.5 -188.5q0 -93 -51.5 -153t-129.5 -60q-63 0 -74 41q-46 -32 -83 -32q-52 0 -81 38t-29 102q0 84 47.5 139.5t118.5 55.5q41 0 121 -29l-33 -201q-2 -11 -2 -24q0 -17 5.5 -24t21.5 -7q44 0 74.5 43t30.5 106 q0 90 -61.5 147t-155.5 57q-107 0 -177 -73t-70 -178q0 -104 70 -166.5t179 -62.5h210v-59h-210q-139 0 -226 75.5t-87 209.5zM238 147q0 -85 62 -85q24 0 48 24l27 183q-15 7 -31 7q-46 0 -76 -35.5t-30 -93.5z" />
<glyph unicode="A" horiz-adv-x="567" d="M10 0l217 644h113l217 -644h-95l-53 152h-251l-52 -152h-96zM189 240h190l-95 302z" />
<glyph unicode="B" horiz-adv-x="531" d="M58 0v644h272q62 0 102.5 -41t40.5 -103v-85q0 -29 -22 -53l-18 -19q56 -42 56 -111v-105q0 -29 -22 -53l-51 -52q-22 -22 -54 -22h-304zM149 88h206l43 44v101q0 23 -14 39t-37 16h-198v-200zM149 376h190l43 44v81q0 24 -15.5 39.5t-40.5 15.5h-177v-180z" />
<glyph unicode="C" horiz-adv-x="524" d="M58 136v389q0 32 22 54l52 52q20 21 54 21h137q64 0 104 -46l67 -75l-69 -50l-65 66q-17 17 -39 17h-129l-43 -44v-385q0 -24 15.5 -39.5t40.5 -15.5h147l82 83l69 -49l-90 -100q-20 -22 -54 -22h-158q-62 0 -102.5 41t-40.5 103z" />
<glyph unicode="D" horiz-adv-x="539" d="M58 0v644h289q62 0 102.5 -41t40.5 -103v-373q0 -28 -23 -53l-51 -52q-22 -22 -54 -22h-304zM149 88h206l44 44v369q0 24 -15.5 39.5t-40.5 15.5h-194v-468z" />
<glyph unicode="E" horiz-adv-x="469" d="M58 0v644h378v-88h-287v-188h239v-88h-239v-192h287v-88h-378z" />
<glyph unicode="F" horiz-adv-x="449" d="M58 0v644h369v-88h-278v-188h230v-88h-230v-280h-91z" />
<glyph unicode="G" horiz-adv-x="564" d="M58 136v389q0 32 22 54l52 52q20 21 54 21h154q64 0 104 -46l67 -75l-69 -50l-65 66q-17 17 -39 17h-146l-43 -44v-385q0 -24 15.5 -39.5t40.5 -15.5h170l43 44v141h-124v88h215v-234q0 -29 -22 -53l-52 -52q-20 -22 -54 -22h-180q-62 0 -102.5 41t-40.5 103z" />
<glyph unicode="H" horiz-adv-x="551" d="M58 0v644h91v-272h253v272h91v-644h-91v284h-253v-284h-91z" />
<glyph unicode="I" horiz-adv-x="376" d="M38 0v80h104v484h-104v80h300v-80h-104v-484h104v-80h-300z" />
<glyph unicode="J" horiz-adv-x="467" d="M16 113l69 50l65 -66q17 -17 39 -17h87l44 44v432h-220v88h311v-525q0 -30 -23 -53l-51 -52q-20 -22 -54 -22h-96q-64 0 -104 46z" />
<glyph unicode="K" horiz-adv-x="523" d="M58 0v644h91v-270h62q8 31 35 65l151 205h108l-183 -251q-22 -29 -22 -63q0 -32 22 -65l183 -265h-107l-152 221q-24 33 -34 65h-63v-286h-91z" />
<glyph unicode="L" horiz-adv-x="440" d="M58 0v644h91v-556h269v-88h-360z" />
<glyph unicode="M" horiz-adv-x="649" d="M58 0v644h113l154 -373l153 373h113v-644h-91v475l-128 -307h-95l-128 307v-475h-91z" />
<glyph unicode="N" horiz-adv-x="558" d="M58 0v644h95l257 -481v481h90v-644h-95l-257 464v-464h-90z" />
<glyph unicode="O" horiz-adv-x="566" d="M58 136v389q0 30 22 54l52 52q20 21 54 21h179q62 0 102.5 -41t40.5 -103v-389q0 -29 -22 -53l-51 -52q-22 -22 -54 -22h-180q-62 0 -102.5 41t-40.5 103zM149 135q0 -24 15.5 -39.5t40.5 -15.5h169l43 44v385q0 24 -15.5 39.5t-40.5 15.5h-169l-43 -44v-385z" />
<glyph unicode="P" horiz-adv-x="496" d="M58 0v644h266q62 0 102.5 -41t40.5 -103v-127q0 -29 -22 -53l-52 -52q-19 -21 -54 -21h-190v-247h-91zM149 334h184l43 44v123q0 24 -15.5 39.5t-40.5 15.5h-171v-222z" />
<glyph unicode="Q" horiz-adv-x="566" d="M58 136v389q0 30 22 54l52 52q20 21 54 21h179q62 0 102.5 -41t40.5 -103v-389q0 -29 -22 -53l-51 -52q-22 -22 -54 -22h-34l42 -92h-92l-42 92h-54q-62 0 -102.5 41t-40.5 103zM149 135q0 -24 15.5 -39.5t40.5 -15.5h31v46h92v-46h46l43 44v385q0 24 -15.5 39.5 t-40.5 15.5h-169l-43 -44v-385z" />
<glyph unicode="R" horiz-adv-x="515" d="M58 0v644h266q62 0 102.5 -41t40.5 -103v-118q0 -31 -22 -53l-52 -53q-17 -18 -43 -20l148 -256h-99l-148 255h-102v-255h-91zM149 343h184l43 44v114q0 24 -15.5 39.5t-40.5 15.5h-171v-213z" />
<glyph unicode="S" horiz-adv-x="534" d="M32 113l69 50l65 -66q17 -17 39 -17h151l44 44v91q0 19 -10.5 34t-28.5 19l-193 42q-47 11 -76.5 49.5t-29.5 90.5v75q0 31 23 54l51 52q20 21 54 21h136q64 0 104 -46l67 -75l-69 -50l-65 66q-17 17 -39 17h-127l-44 -44v-73q0 -19 10.5 -34t28.5 -19l193 -42 q47 -11 76.5 -49.5t29.5 -90.5v-93q0 -28 -23 -53l-51 -52q-22 -22 -54 -22h-160q-64 0 -104 46z" />
<glyph unicode="T" horiz-adv-x="458" d="M13 556v88h432v-88h-170v-556h-92v556h-170z" />
<glyph unicode="U" horiz-adv-x="550" d="M58 136v508h91v-509q0 -24 15.5 -39.5t40.5 -15.5h153l43 44v520h91v-525q0 -31 -22 -53l-52 -52q-22 -22 -54 -22h-163q-62 0 -102.5 41t-40.5 103z" />
<glyph unicode="V" horiz-adv-x="548" d="M10 644h95l168 -541l170 541h95l-207 -644h-115z" />
<glyph unicode="W" horiz-adv-x="770" d="M16 644h96l111 -534l112 534h101l111 -534l112 534h95l-146 -644h-113l-110 481l-109 -481h-113z" />
<glyph unicode="X" horiz-adv-x="524" d="M10 0l156 302q11 21 30 31q-20 12 -30 31l-139 280h100l113 -236q9 -19 22 -28q13 9 22 28l113 236h100l-139 -280q-10 -19 -30 -31q19 -10 30 -31l156 -302h-100l-130 260q-9 19 -22 25q-13 -6 -22 -25l-130 -260h-100z" />
<glyph unicode="Y" horiz-adv-x="514" d="M8 644h100l125 -274q7 -17 24 -17t24 17l125 274h100l-146 -308q-8 -17 -24.5 -33t-33.5 -23v-280h-90v280q-17 7 -33.5 23t-24.5 33z" />
<glyph unicode="Z" horiz-adv-x="471" d="M29 0v97q0 29 16 50l297 385q4 5 4 13v11h-295v88h391v-96q0 -29 -16 -51l-298 -383q-4 -5 -4 -14v-12h318v-88h-413z" />
<glyph unicode="[" horiz-adv-x="249" d="M75 -55v726h164v-55h-83v-616h83v-55h-164z" />
<glyph unicode="\" horiz-adv-x="348" d="M0 652h75l273 -652h-74z" />
<glyph unicode="]" horiz-adv-x="249" d="M10 0h83v616h-83v55h164v-726h-164v55z" />
<glyph unicode="^" horiz-adv-x="564" d="M69 270l191 376h43l192 -376h-68l-146 284l-143 -284h-69z" />
<glyph unicode="_" horiz-adv-x="432" d="M8 -62h415v-59h-415v59z" />
<glyph unicode="`" horiz-adv-x="281" d="M32 573v81l189 -80v-55z" />
<glyph unicode="a" horiz-adv-x="482" d="M39 122v58q0 36 23 53l48 34q19 13 49 13h171v52q0 23 -15.5 38.5t-40.5 15.5h-113l-49 -46l-62 41l67 71q19 19 48 19h114q60 0 99.5 -39.5t39.5 -100.5v-206q0 -73 9 -125h-74l-10 48l-37 -37q-21 -19 -48 -19h-80q-60 0 -99.5 37t-39.5 93zM127 121q0 -19 15.5 -31.5 t40.5 -12.5h79l68 61v65h-164l-39 -28v-54z" />
<glyph unicode="b" horiz-adv-x="490" d="M55 0q8 53 8 125v519h88v-173h152q60 0 99.5 -39.5t39.5 -100.5v-221q0 -31 -22 -53l-44 -43q-24 -22 -54 -22h-99q-29 0 -48 19l-37 37l-9 -48h-74zM151 138l68 -61h96l39 38v217q0 23 -15.5 38.5t-40.5 15.5h-147v-248z" />
<glyph unicode="c" horiz-adv-x="461" d="M48 132v221q0 32 23 53l44 43q24 22 53 22h116q59 0 101 -45l40 -44l-62 -42l-29 29q-17 17 -38 17h-121l-39 -38v-217q0 -23 15.5 -38.5t40.5 -15.5h125l49 48l62 -41l-67 -73q-19 -19 -48 -19h-126q-60 0 -99.5 39.5t-39.5 100.5z" />
<glyph unicode="d" horiz-adv-x="491" d="M48 132v221q0 32 23 53l44 43q24 22 53 22h171v173h88v-519q0 -73 9 -125h-74l-10 48l-37 -37q-19 -19 -48 -19h-80q-60 0 -99.5 39.5t-39.5 100.5zM136 131q0 -23 15.5 -38.5t40.5 -15.5h79l68 61v248h-164l-39 -38v-217z" />
<glyph unicode="e" horiz-adv-x="473" d="M47 132v221q0 32 23 53l44 43q24 22 53 22h120q60 0 99.5 -39.5t39.5 -100.5v-136h-291v-64q0 -23 15.5 -38.5t40.5 -15.5h117l49 48l62 -41l-67 -73q-19 -19 -48 -19h-118q-60 0 -99.5 39.5t-39.5 100.5zM135 271h203v61q0 23 -15.5 38.5t-40.5 15.5h-108l-39 -38v-77z " />
<glyph unicode="f" horiz-adv-x="304" d="M6 386v77h76v41q0 61 39.5 100.5t99.5 39.5h77v-85h-72q-25 0 -40.5 -15.5t-15.5 -38.5v-42h114v-77h-114v-386h-88v386h-76z" />
<glyph unicode="g" horiz-adv-x="490" d="M48 150v203q0 31 22 53l44 43q24 22 54 22h99q29 0 48 -19l37 -37l9 48h74q-8 -53 -8 -125v-401q0 -31 -22 -53l-44 -43q-24 -22 -54 -22h-110q-59 0 -101 45l-40 44l62 42l29 -29q17 -17 38 -17h115l39 38v68h-152q-60 0 -99.5 39.5t-39.5 100.5zM136 149 q0 -23 15.5 -38.5t40.5 -15.5h147v230l-68 61h-96l-39 -38v-199z" />
<glyph unicode="h" horiz-adv-x="489" d="M55 0v644h88v-216l24 24q21 19 48 19h80q60 0 99.5 -39.5t39.5 -100.5v-331h-88v332q0 23 -15.5 38.5t-40.5 15.5h-79l-68 -60v-326h-88z" />
<glyph unicode="i" horiz-adv-x="298" d="M30 0v77h80v309h-70v77h158v-386h80v-77h-248zM102 596v10q0 19 14 32.5t32 13.5h11q18 0 32 -13.5t14 -32.5v-10q0 -19 -14 -33t-32 -14h-11q-18 0 -32 14t-14 33z" />
<glyph unicode="j" horiz-adv-x="221" d="M-15 -127l89 98v492h88v-497q0 -32 -23 -53l-99 -98zM66 596v10q0 19 14 32.5t32 13.5h11q18 0 32 -13.5t14 -32.5v-10q0 -19 -14 -33t-32 -14h-11q-18 0 -32 14t-14 33z" />
<glyph unicode="k" horiz-adv-x="448" d="M55 0v644h88v-355h55q7 30 25 53l96 121h104l-129 -170q-15 -19 -15 -44q0 -24 15 -44l150 -205h-105l-116 157q-22 29 -26 56h-54v-213h-88z" />
<glyph unicode="l" horiz-adv-x="206" d="M59 109v535h88v-519q0 -72 8 -125h-88q-8 46 -8 109z" />
<glyph unicode="m" horiz-adv-x="756" d="M55 464h74l10 -48l36 36q19 19 48 19h64q79 0 118 -64l45 45q19 19 48 19h64q60 0 99.5 -39.5t39.5 -100.5v-331h-88v332q0 23 -15.5 38.5t-40.5 15.5h-63l-68 -60v-326h-88v332q0 23 -15.5 38.5t-40.5 15.5h-63l-68 -60v-326h-88v339q0 71 -8 125z" />
<glyph unicode="n" horiz-adv-x="496" d="M55 464h74l10 -48l36 36q19 19 48 19h80q60 0 99.5 -39.5t39.5 -100.5v-331h-88v332q0 23 -15.5 38.5t-40.5 15.5h-79l-68 -60v-326h-88v339q0 71 -8 125z" />
<glyph unicode="o" horiz-adv-x="473" d="M47 132v221q0 32 23 53l44 43q24 22 53 22h120q60 0 99.5 -39.5t39.5 -100.5v-221q0 -31 -22 -53l-44 -43q-24 -22 -54 -22h-120q-60 0 -99.5 39.5t-39.5 100.5zM135 131q0 -23 15.5 -38.5t40.5 -15.5h108l39 38v217q0 23 -15.5 38.5t-40.5 15.5h-108l-39 -38v-217z" />
<glyph unicode="p" horiz-adv-x="491" d="M55 463h74l10 -48l37 37q19 19 48 19h80q60 0 99.5 -39.5t39.5 -100.5v-221q0 -32 -23 -53l-44 -43q-24 -22 -53 -22h-171v-173h-88v519q0 73 -9 125zM152 77h164l39 38v217q0 23 -15.5 38.5t-40.5 15.5h-79l-68 -61v-248z" />
<glyph unicode="q" horiz-adv-x="490" d="M48 132v221q0 31 22 53l44 43q24 22 54 22h99q29 0 48 -19l37 -37l9 48h74q-8 -53 -8 -125v-519h-88v173h-152q-60 0 -99.5 39.5t-39.5 100.5zM136 131q0 -23 15.5 -38.5t40.5 -15.5h147v248l-68 61h-96l-39 -38v-217z" />
<glyph unicode="r" horiz-adv-x="325" d="M55 464h74l10 -56l44 44q21 19 49 19h82v-93h-95l-68 -60v-318h-88v339q0 71 -8 125z" />
<glyph unicode="s" horiz-adv-x="441" d="M39 85l62 42l33 -33q17 -17 38 -17h104l39 38v26q0 33 -28 39l-151 34q-36 8 -60.5 36.5t-24.5 65.5v37q0 30 23 53l44 43q24 22 54 22h82q59 0 101 -45l40 -44l-62 -42l-29 29q-17 17 -38 17h-88l-39 -38v-18q0 -29 28 -36l159 -35q34 -8 55.5 -36t21.5 -66v-47 q0 -30 -23 -53l-44 -43q-24 -22 -54 -22h-98q-59 0 -101 45z" />
<glyph unicode="t" horiz-adv-x="291" d="M6 386v77h76v133l88 17v-150h106v-77h-106v-247q0 -23 15.5 -38.5t40.5 -15.5h47v-85h-52q-60 0 -99.5 39.5t-39.5 100.5v246h-76z" />
<glyph unicode="u" horiz-adv-x="491" d="M55 133v331h88v-332q0 -23 15.5 -38.5t40.5 -15.5h79l68 61v325h88v-339q0 -73 9 -125h-74l-10 49l-37 -37q-21 -19 -48 -19h-80q-60 0 -99.5 39.5t-39.5 100.5z" />
<glyph unicode="v" horiz-adv-x="432" d="M10 463h93l113 -364l113 364h93l-157 -463h-99z" />
<glyph unicode="w" horiz-adv-x="682" d="M16 463h93l83 -352l97 352h104l97 -352l83 352h93l-126 -463h-97l-103 337l-100 -337h-97z" />
<glyph unicode="x" horiz-adv-x="438" d="M10 0l134 207q16 26 30 33q-14 10 -30 33l-129 190h96l88 -137q10 -17 20 -23q10 6 20 23l88 137h96l-129 -190q-16 -23 -30 -33q14 -7 30 -33l134 -207h-95l-94 149q-12 20 -20 27q-9 -7 -20 -27l-94 -149h-95z" />
<glyph unicode="y" horiz-adv-x="430" d="M8 463h93l120 -323l110 323h91l-187 -544q-9 -27 -39 -43l-120 -63l-34 73l115 66l22 64z" />
<glyph unicode="z" horiz-adv-x="417" d="M27 0v82q0 38 21 59l227 219q9 8 9 19v7h-248v77h342v-82q0 -38 -21 -59l-227 -219q-9 -8 -9 -19v-7h269v-77h-363z" />
<glyph unicode="{" horiz-adv-x="293" d="M49 290v35q28 6 37.5 25t9.5 55v146q0 66 31.5 93.5t115.5 26.5v-35q-35 -10 -50 -29.5t-15 -54.5v-131q0 -96 -59 -112v-2q59 -16 59 -112v-131q0 -36 14.5 -55t50.5 -29v-35q-84 -1 -115.5 26.5t-31.5 93.5v146q0 35 -9 54t-38 25z" />
<glyph unicode="|" horiz-adv-x="217" d="M68 -166v858h81v-858h-81z" />
<glyph unicode="}" horiz-adv-x="293" d="M50 -20q36 10 50.5 29t14.5 55v131q0 96 59 112v2q-59 16 -59 112v131q0 35 -15 54.5t-50 29.5v35q84 1 115.5 -26.5t31.5 -93.5v-146q0 -36 9.5 -55t37.5 -25v-35q-29 -6 -38 -25t-9 -54v-146q0 -66 -31.5 -93.5t-115.5 -26.5v35z" />
<glyph unicode="~" horiz-adv-x="564" d="M72 209q43 87 116 87q36 0 104 -30q67 -29 82 -29q45 0 81 61l36 -44q-44 -87 -116 -87q-36 0 -104 31q-67 29 -83 29q-45 0 -80 -62z" />
<glyph unicode="&#xa1;" horiz-adv-x="178" d="M34 402v10q0 20 14.5 34.5t33.5 14.5h12q19 0 34 -14.5t15 -34.5v-10q0 -20 -15 -34.5t-34 -14.5h-12q-19 0 -33.5 14.5t-14.5 34.5zM43 -15l8 266h75l8 -266v-173h-91v173z" />
<glyph unicode="&#xa2;" horiz-adv-x="461" d="M48 140v201q0 32 23 53l44 43q24 22 53 22h39v80h67v-80h10q59 0 101 -45l40 -44l-62 -42l-29 29q-17 17 -38 17h-121l-39 -38v-197q0 -23 15.5 -38.5t40.5 -15.5h125l49 48l62 -41l-67 -73q-19 -19 -48 -19h-39v-89h-67v89h-20q-60 0 -99.5 39.5t-39.5 100.5z" />
<glyph unicode="&#xa3;" horiz-adv-x="474" d="M4 271v67h52v187q0 32 22 54l52 52q20 21 54 21h87q64 0 104 -46l67 -75l-69 -50l-65 66q-17 17 -39 17h-79l-43 -44v-182h180v-67h-180v-183h294v-88h-418v64l33 33v174h-52z" />
<glyph unicode="&#xa4;" horiz-adv-x="495" d="M39 336q0 69 40 125l-36 36l43 44l37 -36q52 41 128 41q61 0 121 -41l36 36l44 -44l-36 -36q40 -57 40 -129q0 -61 -40 -119l36 -35l-44 -44l-36 36q-58 -41 -129 -41q-63 0 -120 41l-37 -36l-43 44l36 35q-40 58 -40 123zM100 336q0 -60 43 -104t103 -44q62 0 105 43.5 t43 107.5q0 59 -42 103t-101 44q-65 0 -108 -42.5t-43 -107.5z" />
<glyph unicode="&#xa5;" horiz-adv-x="504" d="M3 644h100l125 -274q7 -17 24 -17t24 17l125 274h100l-146 -308q-5 -11 -15 -22h110v-66h-153v-51h153v-67h-153v-130h-90v130h-153v67h153v51h-153v66h109q-7 8 -14 22z" />
<glyph unicode="&#xa6;" horiz-adv-x="217" d="M68 -166v368h81v-368h-81zM68 325v368h81v-368h-81z" />
<glyph unicode="&#xa7;" horiz-adv-x="437" d="M46 -46l62 42l29 -29q17 -17 38 -17h53l38 39v21q0 5 -1.5 9.5t-5 8.5t-5.5 6t-8.5 6.5t-7.5 5.5l-156 126q-35 27 -35 60v31q0 30 23 53l81 83l-33 28q-35 28 -35 59v47q0 29 22 53l44 44q22 22 54 22h46q59 0 101 -45l40 -44l-62 -42l-29 29q-17 17 -38 17h-52l-38 -39 v-23q0 -5 1.5 -9.5t5 -8.5t5.5 -6t8.5 -6.5t7.5 -5.5l157 -125q34 -26 34 -60v-45q0 -29 -22 -53l-75 -76l27 -20q34 -26 34 -61v-45q0 -29 -22 -53l-43 -44q-20 -22 -54 -22h-48q-59 0 -101 45zM135 251q0 -5 1.5 -9.5t5 -8.5t5.5 -6t8.5 -6.5t7.5 -5.5l62 -50l77 79v20 q0 5 -1.5 9.5t-5 8.5t-5.5 6t-8.5 6.5t-7.5 5.5l-55 44l-84 -86v-7z" />
<glyph unicode="&#xa8;" horiz-adv-x="352" d="M43 601v10q0 17 13 30.5t30 13.5h11q17 0 30.5 -13.5t13.5 -30.5v-10q0 -17 -13.5 -30.5t-30.5 -13.5h-11q-17 0 -30 13.5t-13 30.5zM210 601v10q0 17 13 30.5t30 13.5h11q17 0 30.5 -13.5t13.5 -30.5v-10q0 -17 -13.5 -30.5t-30.5 -13.5h-11q-17 0 -30 13.5t-13 30.5z " />
<glyph unicode="&#xa9;" horiz-adv-x="687" d="M21 323q0 134 94.5 228.5t228.5 94.5q133 0 227.5 -94.5t94.5 -228.5t-94 -228.5t-228 -94.5t-228.5 94.5t-94.5 228.5zM71 323q0 -113 80 -193t193 -80q112 0 192.5 80t80.5 193t-80.5 193t-192.5 80q-113 0 -193 -80t-80 -193zM217 203v239q0 20 14 34l31 31 q13 13 33 13h77q38 0 63 -28l40 -45l-42 -30l-38 40q-8 9 -24 9h-71l-27 -26v-234l27 -28h90l49 48l41 -29l-54 -60q-13 -13 -32 -13h-99q-19 0 -33 14l-31 32q-14 16 -14 33z" />
<glyph unicode="&#xaa;" horiz-adv-x="287" d="M24 438v36q0 20 14 31l30 21q10 8 30 8h104v32q0 14 -9.5 24t-23.5 10h-70l-30 -29l-38 26l41 43q10 12 30 12h69q37 0 61 -24.5t24 -61.5v-126q0 -43 6 -77h-46l-6 29l-23 -22q-12 -12 -28 -12h-49q-37 0 -61.5 22.5t-24.5 57.5zM78 437q0 -11 10 -19t25 -8h48l41 38v40 h-100l-24 -17v-34z" />
<glyph unicode="&#xab;" horiz-adv-x="459" d="M41 280v24l151 151h82l-159 -159v-8l162 -162h-80zM182 280v24l151 151h82l-159 -159v-8l162 -162h-80z" />
<glyph unicode="&#xac;" d="M76 372q0 50 2 79t10 55t20 38t37.5 21t56 11t81.5 2t81.5 -2t56 -11t37 -21t20 -38t10 -55t1.5 -79t-1.5 -79t-10 -55.5t-20 -38t-37 -21t-56 -11.5t-81.5 -2t-81.5 2t-56 11t-37.5 21t-20 38t-10 55.5t-2 79.5zM133 323l32 -56l105 82l-19 -131h65l-20 131l105 -82 l32 56l-123 50l123 49l-32 56l-105 -82l19 131h-64l19 -131l-105 81l-32 -56l123 -48z" />
<glyph unicode="&#xad;" horiz-adv-x="228" d="M8 254v75h212v-75h-212z" />
<glyph unicode="&#xae;" horiz-adv-x="687" d="M21 323q0 134 94.5 228.5t228.5 94.5q133 0 227.5 -94.5t94.5 -228.5t-94 -228.5t-228 -94.5t-228.5 94.5t-94.5 228.5zM71 323q0 -113 80 -193t193 -80q112 0 192.5 80t80.5 193t-80.5 193t-192.5 80q-113 0 -193 -80t-80 -193zM228 124v396h156q39 0 64.5 -25t25.5 -64 v-67q0 -20 -13 -33l-32 -32q-12 -13 -33 -13h-6l91 -127v-35h-46l-115 162h-35v-162h-57zM285 339h107l25 28v65q0 14 -9.5 24t-25.5 10h-97v-127z" />
<glyph unicode="&#xaf;" horiz-adv-x="437" d="M66 580v73h305v-73h-305z" />
<glyph unicode="&#xb0;" horiz-adv-x="349" d="M50 535q0 51 36 87.5t88 36.5t88.5 -36.5t36.5 -87.5q0 -52 -36.5 -88.5t-88.5 -36.5t-88 36.5t-36 88.5zM100 535q0 -31 21.5 -53t52.5 -22q32 0 53.5 22t21.5 53t-22 52.5t-53 21.5t-52.5 -21.5t-21.5 -52.5z" />
<glyph unicode="&#xb1;" horiz-adv-x="564" d="M75 105v74h415v-74h-415zM75 315v75h170v129h75v-129h170v-75h-170v-95h-75v95h-170z" />
<glyph unicode="&#xb2;" horiz-adv-x="315" d="M27 575l55 62q13 15 35 15h74q38 0 63.5 -26t25.5 -64v-60q0 -25 -15 -36l-163 -125v-24h178v-61h-243v89q0 25 21 41l158 120v56q0 12 -8 20t-19 8h-65l-49 -52z" />
<glyph unicode="&#xb3;" horiz-adv-x="326" d="M27 328l51 35l41 -41q10 -10 20 -10h65l23 24v62l-23 24h-67v62h62l23 23v55q0 12 -8 20t-21 8h-59l-51 -52l-49 37l57 62q13 15 36 15h69q39 0 64 -25.5t25 -64.5v-59q0 -23 -14 -37l-11 -11l16 -17q15 -15 15 -35v-72q0 -21 -15 -36l-30 -30q-14 -14 -36 -14h-72 q-39 0 -65 28z" />
<glyph unicode="&#xb4;" horiz-adv-x="281" d="M60 519v55l189 80v-81z" />
<glyph unicode="&#xb5;" horiz-adv-x="491" d="M55 -154v618h88v-332q0 -23 15.5 -38.5t40.5 -15.5h79l68 61v325h88v-339q0 -73 9 -125h-74l-10 49l-37 -37q-21 -19 -48 -19h-80q-27 0 -51 8l9 -155h-97z" />
<glyph unicode="&#xb6;" horiz-adv-x="453" d="M37 483q0 77 45.5 120t130.5 43h190v-788h-66v727h-81v-727h-65v473h-13q-62 0 -101.5 42.5t-39.5 109.5z" />
<glyph unicode="&#xb7;" horiz-adv-x="193" d="M42 233v11q0 20 14.5 34.5t33.5 14.5h12q19 0 34 -14.5t15 -34.5v-11q0 -19 -15 -34t-34 -15h-12q-19 0 -33.5 15t-14.5 34z" />
<glyph unicode="&#xb8;" horiz-adv-x="237" d="M61 -159l34 111h80l-57 -111h-57z" />
<glyph unicode="&#xb9;" horiz-adv-x="308" d="M54 603l54 34q16 11 41 11h43v-333h58v-59h-180v59h59v268l-47 -28z" />
<glyph unicode="&#xba;" horiz-adv-x="294" d="M30 443v136q0 19 14 33l27 26q16 14 33 14h73q38 0 62 -24.5t24 -62.5v-135q0 -20 -13 -33l-28 -27q-13 -13 -33 -13h-74q-37 0 -61 24.5t-24 61.5zM84 442q0 -14 10 -23.5t24 -9.5h67l24 24v132q0 15 -10 24.5t-25 9.5h-66l-24 -23v-134z" />
<glyph unicode="&#xbb;" horiz-adv-x="459" d="M41 126l162 162v8l-159 159h82l151 -151v-24l-156 -154h-80zM182 126l162 162v8l-159 159h82l151 -151v-24l-156 -154h-80z" />
<glyph unicode="&#xbc;" horiz-adv-x="672" d="M35 603l54 34q16 11 41 11h43v-333h58v-59h-180v59h59v268l-47 -28zM137 0l353 652h63l-353 -652h-63zM360 83v45l159 264h78v-247h40v-62h-40v-83h-63v83h-174zM436 145h98v161z" />
<glyph unicode="&#xbd;" horiz-adv-x="712" d="M35 603l54 34q16 11 41 11h43v-333h58v-59h-180v59h59v268l-47 -28zM137 0l353 652h63l-353 -652h-63zM424 319l55 62q14 15 35 15h74q38 0 63.5 -26t25.5 -64v-60q0 -26 -15 -36l-163 -125v-24h178v-61h-243v89q0 25 21 41l158 120v56q0 12 -8 20t-19 8h-65l-49 -52z " />
<glyph unicode="&#xbe;" horiz-adv-x="729" d="M27 328l51 35l41 -41q10 -10 20 -10h65l23 24v62l-23 24h-67v62h62l23 23v55q0 12 -8 20t-21 8h-59l-51 -52l-49 37l57 62q13 15 36 15h69q39 0 64 -25.5t25 -64.5v-59q0 -23 -14 -37l-11 -11l16 -17q15 -15 15 -35v-72q0 -21 -15 -36l-30 -30q-14 -14 -36 -14h-72 q-39 0 -65 28zM194 0l353 652h63l-353 -652h-63zM417 83v45l159 264h78v-247h40v-62h-40v-83h-63v83h-174zM493 145h98v161z" />
<glyph unicode="&#xbf;" horiz-adv-x="502" d="M59 18q0 36 23 53l162 121v59h91v-51q0 -49 -24 -67l-161 -121v-63q0 -24 15.5 -39.5t40.5 -15.5h103l64 66l69 -58l-72 -74q-20 -22 -54 -22h-114q-62 0 -102.5 41t-40.5 103v68zM235 402v10q0 20 15 34.5t34 14.5h12q19 0 33.5 -14.5t14.5 -34.5v-10q0 -20 -14.5 -34.5 t-33.5 -14.5h-12q-19 0 -34 14.5t-15 34.5z" />
<glyph unicode="&#xc0;" horiz-adv-x="567" d="M10 0l217 644h113l217 -644h-95l-53 152h-251l-52 -152h-96zM189 240h190l-95 302zM190 736v81l189 -80v-55z" />
<glyph unicode="&#xc1;" horiz-adv-x="567" d="M10 0l217 644h113l217 -644h-95l-53 152h-251l-52 -152h-96zM189 240h190l-95 302zM190 682v55l189 80v-81z" />
<glyph unicode="&#xc2;" horiz-adv-x="567" d="M10 0l217 644h113l217 -644h-95l-53 152h-251l-52 -152h-96zM156 682l101 134h54l102 -134h-83l-45 61l-48 -61h-81zM189 240h190l-95 302z" />
<glyph unicode="&#xc3;" horiz-adv-x="567" d="M10 0l217 644h113l217 -644h-95l-53 152h-251l-52 -152h-96zM138 717q37 73 92 73q19 0 59 -20q36 -19 50 -19q13 0 22.5 8.5t24.5 31.5l45 -33q-37 -73 -93 -73q-19 0 -59 19q-2 1 -13.5 8t-20 10t-16.5 3q-21 0 -46 -41zM189 240h190l-95 302z" />
<glyph unicode="&#xc4;" horiz-adv-x="567" d="M10 0l217 644h113l217 -644h-95l-53 152h-251l-52 -152h-96zM152 730v10q0 17 13 30.5t30 13.5h11q17 0 30.5 -13.5t13.5 -30.5v-10q0 -17 -13.5 -30.5t-30.5 -13.5h-11q-17 0 -30 13.5t-13 30.5zM189 240h190l-95 302zM319 730v10q0 17 13 30.5t30 13.5h11 q17 0 30.5 -13.5t13.5 -30.5v-10q0 -17 -13.5 -30.5t-30.5 -13.5h-11q-17 0 -30 13.5t-13 30.5z" />
<glyph unicode="&#xc5;" horiz-adv-x="567" d="M10 0l212 630q-38 30 -38 79q0 42 29 71t70 29q42 0 71.5 -29t29.5 -71q0 -51 -39 -80l212 -629h-95l-53 152h-251l-52 -152h-96zM189 240h190l-95 302zM235 709q0 -19 14.5 -33.5t33.5 -14.5q20 0 34.5 14t14.5 34t-14.5 34.5t-34.5 14.5q-19 0 -33.5 -15t-14.5 -34z " />
<glyph unicode="&#xc6;" horiz-adv-x="742" d="M12 0l197 644h500v-88h-267v-188h219v-88h-219v-192h267v-88h-358v193h-184l-57 -193h-98zM194 281h157v275h-74z" />
<glyph unicode="&#xc7;" horiz-adv-x="516" d="M50 136v389q0 32 22 54l52 52q20 21 54 21h137q64 0 104 -46l67 -75l-69 -50l-65 66q-17 17 -39 17h-129l-43 -44v-385q0 -24 15.5 -39.5t40.5 -15.5h147l82 83l69 -49l-90 -100q-20 -22 -54 -22h-158q-62 0 -102.5 41t-40.5 103zM200 -159l34 111h80l-57 -111h-57z" />
<glyph unicode="&#xc8;" horiz-adv-x="469" d="M58 0v644h378v-88h-287v-188h239v-88h-239v-192h287v-88h-378zM153 736v81l189 -80v-55z" />
<glyph unicode="&#xc9;" horiz-adv-x="469" d="M58 0v644h378v-88h-287v-188h239v-88h-239v-192h287v-88h-378zM153 682v55l189 80v-81z" />
<glyph unicode="&#xca;" horiz-adv-x="469" d="M58 0v644h378v-88h-287v-188h239v-88h-239v-192h287v-88h-378zM119 682l101 134h54l102 -134h-83l-45 61l-48 -61h-81z" />
<glyph unicode="&#xcb;" horiz-adv-x="469" d="M58 0v644h378v-88h-287v-188h239v-88h-239v-192h287v-88h-378zM115 730v10q0 17 13 30.5t30 13.5h11q17 0 30.5 -13.5t13.5 -30.5v-10q0 -17 -13.5 -30.5t-30.5 -13.5h-11q-17 0 -30 13.5t-13 30.5zM282 730v10q0 17 13 30.5t30 13.5h11q17 0 30.5 -13.5t13.5 -30.5v-10 q0 -17 -13.5 -30.5t-30.5 -13.5h-11q-17 0 -30 13.5t-13 30.5z" />
<glyph unicode="&#xcc;" horiz-adv-x="376" d="M38 0v80h104v484h-104v80h300v-80h-104v-484h104v-80h-300zM94 736v81l189 -80v-55z" />
<glyph unicode="&#xcd;" horiz-adv-x="376" d="M38 0v80h104v484h-104v80h300v-80h-104v-484h104v-80h-300zM94 682v55l189 80v-81z" />
<glyph unicode="&#xce;" horiz-adv-x="376" d="M38 0v80h104v484h-104v80h300v-80h-104v-484h104v-80h-300zM60 682l101 134h54l102 -134h-83l-45 61l-48 -61h-81z" />
<glyph unicode="&#xcf;" horiz-adv-x="376" d="M38 0v80h104v484h-104v80h300v-80h-104v-484h104v-80h-300zM56 730v10q0 17 13 30.5t30 13.5h11q17 0 30.5 -13.5t13.5 -30.5v-10q0 -17 -13.5 -30.5t-30.5 -13.5h-11q-17 0 -30 13.5t-13 30.5zM223 730v10q0 17 13 30.5t30 13.5h11q17 0 30.5 -13.5t13.5 -30.5v-10 q0 -17 -13.5 -30.5t-30.5 -13.5h-11q-17 0 -30 13.5t-13 30.5z" />
<glyph unicode="&#xd0;" horiz-adv-x="541" d="M4 297v80h56v267h289q62 0 102.5 -41t40.5 -103v-373q0 -28 -23 -53l-51 -52q-22 -22 -54 -22h-304v297h-56zM151 88h206l44 44v369q0 24 -15.5 39.5t-40.5 15.5h-194v-179h107v-80h-107v-209z" />
<glyph unicode="&#xd1;" horiz-adv-x="558" d="M58 0v644h95l257 -481v481h90v-644h-95l-257 464v-464h-90zM133 717q37 73 92 73q19 0 59 -20q36 -19 50 -19q13 0 22.5 8.5t24.5 31.5l45 -33q-37 -73 -93 -73q-19 0 -59 19q-2 1 -13.5 8t-20 10t-16.5 3q-21 0 -46 -41z" />
<glyph unicode="&#xd2;" horiz-adv-x="566" d="M58 136v389q0 30 22 54l52 52q20 21 54 21h179q62 0 102.5 -41t40.5 -103v-389q0 -29 -22 -53l-51 -52q-22 -22 -54 -22h-180q-62 0 -102.5 41t-40.5 103zM149 135q0 -24 15.5 -39.5t40.5 -15.5h169l43 44v385q0 24 -15.5 39.5t-40.5 15.5h-169l-43 -44v-385zM189 736v81 l189 -80v-55z" />
<glyph unicode="&#xd3;" horiz-adv-x="566" d="M58 136v389q0 30 22 54l52 52q20 21 54 21h179q62 0 102.5 -41t40.5 -103v-389q0 -29 -22 -53l-51 -52q-22 -22 -54 -22h-180q-62 0 -102.5 41t-40.5 103zM149 135q0 -24 15.5 -39.5t40.5 -15.5h169l43 44v385q0 24 -15.5 39.5t-40.5 15.5h-169l-43 -44v-385zM189 682v55 l189 80v-81z" />
<glyph unicode="&#xd4;" horiz-adv-x="566" d="M58 136v389q0 30 22 54l52 52q20 21 54 21h179q62 0 102.5 -41t40.5 -103v-389q0 -29 -22 -53l-51 -52q-22 -22 -54 -22h-180q-62 0 -102.5 41t-40.5 103zM149 135q0 -24 15.5 -39.5t40.5 -15.5h169l43 44v385q0 24 -15.5 39.5t-40.5 15.5h-169l-43 -44v-385zM155 682 l101 134h54l102 -134h-83l-45 61l-48 -61h-81z" />
<glyph unicode="&#xd5;" horiz-adv-x="566" d="M58 136v389q0 30 22 54l52 52q20 21 54 21h179q62 0 102.5 -41t40.5 -103v-389q0 -29 -22 -53l-51 -52q-22 -22 -54 -22h-180q-62 0 -102.5 41t-40.5 103zM137 717q37 73 92 73q19 0 59 -20q36 -19 50 -19q13 0 22.5 8.5t24.5 31.5l45 -33q-37 -73 -93 -73q-19 0 -59 19 q-2 1 -13.5 8t-20 10t-16.5 3q-21 0 -46 -41zM149 135q0 -24 15.5 -39.5t40.5 -15.5h169l43 44v385q0 24 -15.5 39.5t-40.5 15.5h-169l-43 -44v-385z" />
<glyph unicode="&#xd6;" horiz-adv-x="566" d="M58 136v389q0 30 22 54l52 52q20 21 54 21h179q62 0 102.5 -41t40.5 -103v-389q0 -29 -22 -53l-51 -52q-22 -22 -54 -22h-180q-62 0 -102.5 41t-40.5 103zM149 135q0 -24 15.5 -39.5t40.5 -15.5h169l43 44v385q0 24 -15.5 39.5t-40.5 15.5h-169l-43 -44v-385zM151 730v10 q0 17 13 30.5t30 13.5h11q17 0 30.5 -13.5t13.5 -30.5v-10q0 -17 -13.5 -30.5t-30.5 -13.5h-11q-17 0 -30 13.5t-13 30.5zM318 730v10q0 17 13 30.5t30 13.5h11q17 0 30.5 -13.5t13.5 -30.5v-10q0 -17 -13.5 -30.5t-30.5 -13.5h-11q-17 0 -30 13.5t-13 30.5z" />
<glyph unicode="&#xd7;" horiz-adv-x="564" d="M75 155l156 156l-156 156l51 52l156 -156l156 156l52 -52l-156 -156l156 -156l-52 -51l-156 156l-156 -156z" />
<glyph unicode="&#xd8;" horiz-adv-x="549" d="M33 -1l37 58q-21 33 -21 79v389q0 30 22 54l52 52q19 21 54 21h179q44 0 77 -21l28 45h55v-35l-37 -58q20 -32 20 -75v-389q0 -29 -22 -53l-51 -52q-22 -22 -54 -22h-180q-42 0 -76 20l-31 -50h-52v37zM140 168l244 387q-14 9 -32 9h-169l-43 -44v-352zM165 88 q13 -8 31 -8h169l43 44v347z" />
<glyph unicode="&#xd9;" horiz-adv-x="550" d="M58 136v508h91v-509q0 -24 15.5 -39.5t40.5 -15.5h153l43 44v520h91v-525q0 -31 -22 -53l-52 -52q-22 -22 -54 -22h-163q-62 0 -102.5 41t-40.5 103zM181 736v81l189 -80v-55z" />
<glyph unicode="&#xda;" horiz-adv-x="550" d="M58 136v508h91v-509q0 -24 15.5 -39.5t40.5 -15.5h153l43 44v520h91v-525q0 -31 -22 -53l-52 -52q-22 -22 -54 -22h-163q-62 0 -102.5 41t-40.5 103zM181 682v55l189 80v-81z" />
<glyph unicode="&#xdb;" horiz-adv-x="550" d="M58 136v508h91v-509q0 -24 15.5 -39.5t40.5 -15.5h153l43 44v520h91v-525q0 -31 -22 -53l-52 -52q-22 -22 -54 -22h-163q-62 0 -102.5 41t-40.5 103zM147 682l101 134h54l102 -134h-83l-45 61l-48 -61h-81z" />
<glyph unicode="&#xdc;" horiz-adv-x="550" d="M58 136v508h91v-509q0 -24 15.5 -39.5t40.5 -15.5h153l43 44v520h91v-525q0 -31 -22 -53l-52 -52q-22 -22 -54 -22h-163q-62 0 -102.5 41t-40.5 103zM143 730v10q0 17 13 30.5t30 13.5h11q17 0 30.5 -13.5t13.5 -30.5v-10q0 -17 -13.5 -30.5t-30.5 -13.5h-11 q-17 0 -30 13.5t-13 30.5zM310 730v10q0 17 13 30.5t30 13.5h11q17 0 30.5 -13.5t13.5 -30.5v-10q0 -17 -13.5 -30.5t-30.5 -13.5h-11q-17 0 -30 13.5t-13 30.5z" />
<glyph unicode="&#xdd;" horiz-adv-x="514" d="M8 644h100l125 -274q7 -17 24 -17t24 17l125 274h100l-146 -308q-8 -17 -24.5 -33t-33.5 -23v-280h-90v280q-17 7 -33.5 23t-24.5 33zM166 682v55l189 80v-81z" />
<glyph unicode="&#xde;" horiz-adv-x="496" d="M58 0v644h91v-119h175q62 0 102.5 -41t40.5 -103v-127q0 -29 -22 -53l-52 -52q-19 -21 -54 -21h-190v-128h-91zM149 215h184l43 44v123q0 24 -15.5 39.5t-40.5 15.5h-171v-222z" />
<glyph unicode="&#xdf;" horiz-adv-x="502" d="M66 0v517q0 30 23 53l51 52q22 22 54 22h70q60 0 99.5 -39.5t39.5 -100.5v-54q0 -31 -22 -53l-6 -6q69 -38 69 -122v-159q0 -31 -22 -53l-44 -43q-24 -22 -54 -22h-85v85h78l39 38v155q0 23 -15.5 38.5t-40.5 15.5h-58v66l73 65v50q0 23 -15.5 38.5t-40.5 15.5h-58 l-47 -47v-512h-88z" />
<glyph unicode="&#xe0;" horiz-adv-x="482" d="M39 122v58q0 36 23 53l48 34q19 13 49 13h171v52q0 23 -15.5 38.5t-40.5 15.5h-113l-49 -46l-62 41l67 71q19 19 48 19h114q60 0 99.5 -39.5t39.5 -100.5v-206q0 -73 9 -125h-74l-10 48l-37 -37q-21 -19 -48 -19h-80q-60 0 -99.5 37t-39.5 93zM127 121q0 -19 15.5 -31.5 t40.5 -12.5h79l68 61v65h-164l-39 -28v-54zM138 573v81l189 -80v-55z" />
<glyph unicode="&#xe1;" horiz-adv-x="482" d="M39 122v58q0 36 23 53l48 34q19 13 49 13h171v52q0 23 -15.5 38.5t-40.5 15.5h-113l-49 -46l-62 41l67 71q19 19 48 19h114q60 0 99.5 -39.5t39.5 -100.5v-206q0 -73 9 -125h-74l-10 48l-37 -37q-21 -19 -48 -19h-80q-60 0 -99.5 37t-39.5 93zM127 121q0 -19 15.5 -31.5 t40.5 -12.5h79l68 61v65h-164l-39 -28v-54zM138 519v55l189 80v-81z" />
<glyph unicode="&#xe2;" horiz-adv-x="482" d="M39 122v58q0 36 23 53l48 34q19 13 49 13h171v52q0 23 -15.5 38.5t-40.5 15.5h-113l-49 -46l-62 41l67 71q19 19 48 19h114q60 0 99.5 -39.5t39.5 -100.5v-206q0 -73 9 -125h-74l-10 48l-37 -37q-21 -19 -48 -19h-80q-60 0 -99.5 37t-39.5 93zM104 519l101 134h54 l102 -134h-83l-45 61l-48 -61h-81zM127 121q0 -19 15.5 -31.5t40.5 -12.5h79l68 61v65h-164l-39 -28v-54z" />
<glyph unicode="&#xe3;" horiz-adv-x="482" d="M39 122v58q0 36 23 53l48 34q19 13 49 13h171v52q0 23 -15.5 38.5t-40.5 15.5h-113l-49 -46l-62 41l67 71q19 19 48 19h114q60 0 99.5 -39.5t39.5 -100.5v-206q0 -73 9 -125h-74l-10 48l-37 -37q-21 -19 -48 -19h-80q-60 0 -99.5 37t-39.5 93zM86 579q37 73 92 73 q19 0 59 -20q36 -19 50 -19q13 0 22.5 8.5t24.5 31.5l45 -33q-37 -73 -93 -73q-19 0 -59 19q-2 1 -13.5 8t-20 10t-16.5 3q-21 0 -46 -41zM127 121q0 -19 15.5 -31.5t40.5 -12.5h79l68 61v65h-164l-39 -28v-54z" />
<glyph unicode="&#xe4;" horiz-adv-x="482" d="M39 122v58q0 36 23 53l48 34q19 13 49 13h171v52q0 23 -15.5 38.5t-40.5 15.5h-113l-49 -46l-62 41l67 71q19 19 48 19h114q60 0 99.5 -39.5t39.5 -100.5v-206q0 -73 9 -125h-74l-10 48l-37 -37q-21 -19 -48 -19h-80q-60 0 -99.5 37t-39.5 93zM100 597v10q0 17 13 30.5 t30 13.5h11q17 0 30.5 -13.5t13.5 -30.5v-10q0 -17 -13.5 -30.5t-30.5 -13.5h-11q-17 0 -30 13.5t-13 30.5zM127 121q0 -19 15.5 -31.5t40.5 -12.5h79l68 61v65h-164l-39 -28v-54zM267 597v10q0 17 13 30.5t30 13.5h11q17 0 30.5 -13.5t13.5 -30.5v-10q0 -17 -13.5 -30.5 t-30.5 -13.5h-11q-17 0 -30 13.5t-13 30.5z" />
<glyph unicode="&#xe5;" horiz-adv-x="482" d="M39 122v58q0 36 23 53l48 34q19 13 49 13h171v52q0 23 -15.5 38.5t-40.5 15.5h-113l-49 -46l-62 41l67 71q19 19 48 19h114q60 0 99.5 -39.5t39.5 -100.5v-206q0 -73 9 -125h-74l-10 48l-37 -37q-21 -19 -48 -19h-80q-60 0 -99.5 37t-39.5 93zM127 121q0 -19 15.5 -31.5 t40.5 -12.5h79l68 61v65h-164l-39 -28v-54zM133 601q0 42 29 71t70 29q42 0 71.5 -29t29.5 -71t-29.5 -71t-71.5 -29q-41 0 -70 29t-29 71zM184 601q0 -19 14.5 -33.5t33.5 -14.5q20 0 34.5 14t14.5 34t-14.5 34.5t-34.5 14.5q-19 0 -33.5 -15t-14.5 -34z" />
<glyph unicode="&#xe6;" horiz-adv-x="716" d="M39 122v49q0 36 23 53l48 34q19 13 49 13h151v61q0 23 -15.5 38.5t-40.5 15.5h-93l-49 -46l-62 41l67 71q19 19 48 19h94q60 0 100 -40l18 18q24 22 53 22h100q60 0 99.5 -39.5t39.5 -100.5v-136h-271v-64q0 -23 15.5 -38.5t40.5 -15.5h97l49 48l62 -41l-67 -73 q-19 -19 -48 -19h-98q-80 0 -118 64l-45 -45q-19 -19 -48 -19h-60q-60 0 -99.5 37t-39.5 93zM127 121q0 -19 15.5 -31.5t40.5 -12.5h59l68 61v57h-143l-40 -29v-45zM398 271h183v61q0 23 -15.5 38.5t-40.5 15.5h-88l-39 -38v-77z" />
<glyph unicode="&#xe7;" horiz-adv-x="461" d="M48 132v221q0 32 23 53l44 43q24 22 53 22h116q59 0 101 -45l40 -44l-62 -42l-29 29q-17 17 -38 17h-121l-39 -38v-217q0 -23 15.5 -38.5t40.5 -15.5h125l49 48l62 -41l-67 -73q-19 -19 -48 -19h-126q-60 0 -99.5 39.5t-39.5 100.5zM176 -159l34 111h80l-57 -111h-57z " />
<glyph unicode="&#xe8;" horiz-adv-x="474" d="M48 132v221q0 32 23 53l44 43q24 22 53 22h120q60 0 99.5 -39.5t39.5 -100.5v-136h-291v-64q0 -23 15.5 -38.5t40.5 -15.5h117l49 48l62 -41l-67 -73q-19 -19 -48 -19h-118q-60 0 -99.5 39.5t-39.5 100.5zM136 271h203v61q0 23 -15.5 38.5t-40.5 15.5h-108l-39 -38v-77z M143 573v81l189 -80v-55z" />
<glyph unicode="&#xe9;" horiz-adv-x="474" d="M48 132v221q0 32 23 53l44 43q24 22 53 22h120q60 0 99.5 -39.5t39.5 -100.5v-136h-291v-64q0 -23 15.5 -38.5t40.5 -15.5h117l49 48l62 -41l-67 -73q-19 -19 -48 -19h-118q-60 0 -99.5 39.5t-39.5 100.5zM136 271h203v61q0 23 -15.5 38.5t-40.5 15.5h-108l-39 -38v-77z M143 519v55l189 80v-81z" />
<glyph unicode="&#xea;" horiz-adv-x="474" d="M48 132v221q0 32 23 53l44 43q24 22 53 22h120q60 0 99.5 -39.5t39.5 -100.5v-136h-291v-64q0 -23 15.5 -38.5t40.5 -15.5h117l49 48l62 -41l-67 -73q-19 -19 -48 -19h-118q-60 0 -99.5 39.5t-39.5 100.5zM109 519l101 134h54l102 -134h-83l-45 61l-48 -61h-81zM136 271 h203v61q0 23 -15.5 38.5t-40.5 15.5h-108l-39 -38v-77z" />
<glyph unicode="&#xeb;" horiz-adv-x="474" d="M48 132v221q0 32 23 53l44 43q24 22 53 22h120q60 0 99.5 -39.5t39.5 -100.5v-136h-291v-64q0 -23 15.5 -38.5t40.5 -15.5h117l49 48l62 -41l-67 -73q-19 -19 -48 -19h-118q-60 0 -99.5 39.5t-39.5 100.5zM105 601v10q0 17 13 30.5t30 13.5h11q17 0 30.5 -13.5 t13.5 -30.5v-10q0 -17 -13.5 -30.5t-30.5 -13.5h-11q-17 0 -30 13.5t-13 30.5zM136 271h203v61q0 23 -15.5 38.5t-40.5 15.5h-108l-39 -38v-77zM272 601v10q0 17 13 30.5t30 13.5h11q17 0 30.5 -13.5t13.5 -30.5v-10q0 -17 -13.5 -30.5t-30.5 -13.5h-11q-17 0 -30 13.5 t-13 30.5z" />
<glyph unicode="&#xec;" horiz-adv-x="298" d="M30 0v77h80v309h-70v77h158v-386h80v-77h-248zM60 573v81l189 -80v-55z" />
<glyph unicode="&#xed;" horiz-adv-x="298" d="M30 0v77h80v309h-70v77h158v-386h80v-77h-248zM60 519v55l189 80v-81z" />
<glyph unicode="&#xee;" horiz-adv-x="298" d="M26 519l101 134h54l102 -134h-83l-45 61l-48 -61h-81zM30 0v77h80v309h-70v77h158v-386h80v-77h-248z" />
<glyph unicode="&#xef;" horiz-adv-x="298" d="M22 601v10q0 17 13 30.5t30 13.5h11q17 0 30.5 -13.5t13.5 -30.5v-10q0 -17 -13.5 -30.5t-30.5 -13.5h-11q-17 0 -30 13.5t-13 30.5zM30 0v77h80v309h-70v77h158v-386h80v-77h-248zM189 601v10q0 17 13 30.5t30 13.5h11q17 0 30.5 -13.5t13.5 -30.5v-10 q0 -17 -13.5 -30.5t-30.5 -13.5h-11q-17 0 -30 13.5t-13 30.5z" />
<glyph unicode="&#xf0;" horiz-adv-x="475" d="M48 132v213q0 32 23 53l44 43q24 22 53 22h109l-51 79l-61 -36l-28 45l61 36l-65 102h96l39 -61l64 38l28 -45l-63 -37l118 -178q12 -19 12 -77v-219q0 -31 -22 -53l-44 -43q-24 -22 -54 -22h-120q-60 0 -99.5 39.5t-39.5 100.5zM136 131q0 -23 15.5 -38.5t40.5 -15.5 h108l39 38v209q0 23 -15.5 38.5t-40.5 15.5h-108l-39 -38v-209z" />
<glyph unicode="&#xf1;" horiz-adv-x="496" d="M55 464h74l10 -48l36 36q19 19 48 19h80q60 0 99.5 -39.5t39.5 -100.5v-331h-88v332q0 23 -15.5 38.5t-40.5 15.5h-79l-68 -60v-326h-88v339q0 71 -8 125zM102 579q37 73 92 73q19 0 59 -20q36 -19 50 -19q13 0 22.5 8.5t24.5 31.5l45 -33q-37 -73 -93 -73q-19 0 -59 19 q-2 1 -13.5 8t-20 10t-16.5 3q-21 0 -46 -41z" />
<glyph unicode="&#xf2;" horiz-adv-x="473" d="M47 132v221q0 32 23 53l44 43q24 22 53 22h120q60 0 99.5 -39.5t39.5 -100.5v-221q0 -31 -22 -53l-44 -43q-24 -22 -54 -22h-120q-60 0 -99.5 39.5t-39.5 100.5zM135 131q0 -23 15.5 -38.5t40.5 -15.5h108l39 38v217q0 23 -15.5 38.5t-40.5 15.5h-108l-39 -38v-217z M142 573v81l189 -80v-55z" />
<glyph unicode="&#xf3;" horiz-adv-x="473" d="M47 132v221q0 32 23 53l44 43q24 22 53 22h120q60 0 99.5 -39.5t39.5 -100.5v-221q0 -31 -22 -53l-44 -43q-24 -22 -54 -22h-120q-60 0 -99.5 39.5t-39.5 100.5zM135 131q0 -23 15.5 -38.5t40.5 -15.5h108l39 38v217q0 23 -15.5 38.5t-40.5 15.5h-108l-39 -38v-217z M142 519v55l189 80v-81z" />
<glyph unicode="&#xf4;" horiz-adv-x="473" d="M47 132v221q0 32 23 53l44 43q24 22 53 22h120q60 0 99.5 -39.5t39.5 -100.5v-221q0 -31 -22 -53l-44 -43q-24 -22 -54 -22h-120q-60 0 -99.5 39.5t-39.5 100.5zM108 519l101 134h54l102 -134h-83l-45 61l-48 -61h-81zM135 131q0 -23 15.5 -38.5t40.5 -15.5h108l39 38 v217q0 23 -15.5 38.5t-40.5 15.5h-108l-39 -38v-217z" />
<glyph unicode="&#xf5;" horiz-adv-x="473" d="M47 132v221q0 32 23 53l44 43q24 22 53 22h120q60 0 99.5 -39.5t39.5 -100.5v-221q0 -31 -22 -53l-44 -43q-24 -22 -54 -22h-120q-60 0 -99.5 39.5t-39.5 100.5zM90 579q37 73 92 73q19 0 59 -20q36 -19 50 -19q13 0 22.5 8.5t24.5 31.5l45 -33q-37 -73 -93 -73 q-19 0 -59 19q-2 1 -13.5 8t-20 10t-16.5 3q-21 0 -46 -41zM135 131q0 -23 15.5 -38.5t40.5 -15.5h108l39 38v217q0 23 -15.5 38.5t-40.5 15.5h-108l-39 -38v-217z" />
<glyph unicode="&#xf6;" horiz-adv-x="473" d="M47 132v221q0 32 23 53l44 43q24 22 53 22h120q60 0 99.5 -39.5t39.5 -100.5v-221q0 -31 -22 -53l-44 -43q-24 -22 -54 -22h-120q-60 0 -99.5 39.5t-39.5 100.5zM104 601v10q0 17 13 30.5t30 13.5h11q17 0 30.5 -13.5t13.5 -30.5v-10q0 -17 -13.5 -30.5t-30.5 -13.5h-11 q-17 0 -30 13.5t-13 30.5zM135 131q0 -23 15.5 -38.5t40.5 -15.5h108l39 38v217q0 23 -15.5 38.5t-40.5 15.5h-108l-39 -38v-217zM271 601v10q0 17 13 30.5t30 13.5h11q17 0 30.5 -13.5t13.5 -30.5v-10q0 -17 -13.5 -30.5t-30.5 -13.5h-11q-17 0 -30 13.5t-13 30.5z" />
<glyph unicode="&#xf7;" horiz-adv-x="564" d="M75 274v75h415v-75h-415zM233 148v10q0 17 13 30.5t30 13.5h11q17 0 30.5 -13.5t13.5 -30.5v-10q0 -17 -13.5 -30.5t-30.5 -13.5h-11q-17 0 -30 13.5t-13 30.5zM233 465v10q0 17 13 30.5t30 13.5h11q17 0 30.5 -13.5t13.5 -30.5v-10q0 -17 -13.5 -30.5t-30.5 -13.5h-11 q-17 0 -30 13.5t-13 30.5z" />
<glyph unicode="&#xf8;" horiz-adv-x="493" d="M36 -1l41 56q-20 34 -20 77v221q0 32 23 53l44 43q24 22 53 22h120q41 0 73 -20l37 50h50v-35l-43 -58q22 -35 22 -77v-221q0 -31 -22 -53l-44 -43q-24 -22 -54 -22h-120q-39 0 -76 20l-37 -50h-47v37zM145 147l172 233q-11 6 -25 6h-108l-39 -38v-201zM173 83 q12 -6 28 -6h108l39 38v204z" />
<glyph unicode="&#xf9;" horiz-adv-x="491" d="M55 133v331h88v-332q0 -23 15.5 -38.5t40.5 -15.5h79l68 61v325h88v-339q0 -73 9 -125h-74l-10 49l-37 -37q-21 -19 -48 -19h-80q-60 0 -99.5 39.5t-39.5 100.5zM155 573v81l189 -80v-55z" />
<glyph unicode="&#xfa;" horiz-adv-x="491" d="M55 133v331h88v-332q0 -23 15.5 -38.5t40.5 -15.5h79l68 61v325h88v-339q0 -73 9 -125h-74l-10 49l-37 -37q-21 -19 -48 -19h-80q-60 0 -99.5 39.5t-39.5 100.5zM155 519v55l189 80v-81z" />
<glyph unicode="&#xfb;" horiz-adv-x="491" d="M55 133v331h88v-332q0 -23 15.5 -38.5t40.5 -15.5h79l68 61v325h88v-339q0 -73 9 -125h-74l-10 49l-37 -37q-21 -19 -48 -19h-80q-60 0 -99.5 39.5t-39.5 100.5zM121 519l101 134h54l102 -134h-83l-45 61l-48 -61h-81z" />
<glyph unicode="&#xfc;" horiz-adv-x="491" d="M55 133v331h88v-332q0 -23 15.5 -38.5t40.5 -15.5h79l68 61v325h88v-339q0 -73 9 -125h-74l-10 49l-37 -37q-21 -19 -48 -19h-80q-60 0 -99.5 39.5t-39.5 100.5zM117 601v10q0 17 13 30.5t30 13.5h11q17 0 30.5 -13.5t13.5 -30.5v-10q0 -17 -13.5 -30.5t-30.5 -13.5h-11 q-17 0 -30 13.5t-13 30.5zM284 601v10q0 17 13 30.5t30 13.5h11q17 0 30.5 -13.5t13.5 -30.5v-10q0 -17 -13.5 -30.5t-30.5 -13.5h-11q-17 0 -30 13.5t-13 30.5z" />
<glyph unicode="&#xfd;" horiz-adv-x="430" d="M8 463h93l120 -323l110 323h91l-187 -544q-9 -27 -39 -43l-120 -63l-34 73l115 66l22 64zM121 519v55l189 80v-81z" />
<glyph unicode="&#xfe;" horiz-adv-x="482" d="M54 -181v825h88v-216l24 24q19 19 48 19h80q60 0 99.5 -39.5t39.5 -100.5v-221q0 -32 -23 -53l-44 -43q-24 -22 -53 -22h-171v-173h-88zM142 77h164l39 38v217q0 23 -15.5 38.5t-40.5 15.5h-79l-68 -61v-248z" />
<glyph unicode="&#xff;" horiz-adv-x="430" d="M8 463h93l120 -323l110 323h91l-187 -544q-9 -27 -39 -43l-120 -63l-34 73l115 66l22 64zM83 601v10q0 17 13 30.5t30 13.5h11q17 0 30.5 -13.5t13.5 -30.5v-10q0 -17 -13.5 -30.5t-30.5 -13.5h-11q-17 0 -30 13.5t-13 30.5zM250 601v10q0 17 13 30.5t30 13.5h11 q17 0 30.5 -13.5t13.5 -30.5v-10q0 -17 -13.5 -30.5t-30.5 -13.5h-11q-17 0 -30 13.5t-13 30.5z" />
<glyph unicode="&#x131;" horiz-adv-x="298" d="M30 0v77h80v309h-70v77h158v-386h80v-77h-248z" />
<glyph unicode="&#x141;" horiz-adv-x="441" d="M-7 235v77l67 36v296h91v-247l129 69v-78l-129 -69v-231h269v-88h-360v270z" />
<glyph unicode="&#x142;" horiz-adv-x="289" d="M25 253v77l76 41v273h88v-226l75 41v-78l-75 -41v-215q0 -72 8 -125h-88q-8 46 -8 109v184z" />
<glyph unicode="&#x152;" horiz-adv-x="769" d="M50 144v373q0 30 22 54l52 52q20 21 54 21h558v-88h-267v-188h219v-88h-219v-192h267v-88h-543q-62 0 -102.5 41t-40.5 103zM141 143q0 -24 15.5 -39.5t40.5 -15.5h181v468h-194l-43 -44v-369z" />
<glyph unicode="&#x153;" horiz-adv-x="725" d="M48 132v221q0 32 23 53l44 43q24 22 53 22h100q60 0 100 -40l18 18q24 22 53 22h100q60 0 99.5 -39.5t39.5 -100.5v-136h-271v-64q0 -23 15.5 -38.5t40.5 -15.5h97l49 48l62 -41l-67 -73q-19 -19 -48 -19h-98q-61 0 -100 39l-17 -17q-24 -22 -54 -22h-100 q-60 0 -99.5 39.5t-39.5 100.5zM136 131q0 -23 15.5 -38.5t40.5 -15.5h88l39 38v217q0 23 -15.5 38.5t-40.5 15.5h-88l-39 -38v-217zM407 271h183v61q0 23 -15.5 38.5t-40.5 15.5h-88l-39 -38v-77z" />
<glyph unicode="&#x160;" horiz-adv-x="534" d="M32 113l69 50l65 -66q17 -17 39 -17h151l44 44v91q0 19 -10.5 34t-28.5 19l-193 42q-47 11 -76.5 49.5t-29.5 90.5v75q0 31 23 54l51 52q20 21 54 21h136q64 0 104 -46l67 -75l-69 -50l-65 66q-17 17 -39 17h-127l-44 -44v-73q0 -19 10.5 -34t28.5 -19l193 -42 q47 -11 76.5 -49.5t29.5 -90.5v-93q0 -28 -23 -53l-51 -52q-22 -22 -54 -22h-160q-64 0 -104 46zM144 816h83l46 -61l48 61h80l-101 -134h-54z" />
<glyph unicode="&#x161;" horiz-adv-x="441" d="M39 85l62 42l33 -33q17 -17 38 -17h104l39 38v26q0 33 -28 39l-151 34q-36 8 -60.5 36.5t-24.5 65.5v37q0 30 23 53l44 43q24 22 54 22h82q59 0 101 -45l40 -44l-62 -42l-29 29q-17 17 -38 17h-88l-39 -38v-18q0 -29 28 -36l159 -35q34 -8 55.5 -36t21.5 -66v-47 q0 -30 -23 -53l-44 -43q-24 -22 -54 -22h-98q-59 0 -101 45zM93 653h83l46 -61l48 61h80l-101 -134h-54z" />
<glyph unicode="&#x178;" horiz-adv-x="514" d="M8 644h100l125 -274q7 -17 24 -17t24 17l125 274h100l-146 -308q-8 -17 -24.5 -33t-33.5 -23v-280h-90v280q-17 7 -33.5 23t-24.5 33zM128 730v10q0 17 13 30.5t30 13.5h11q17 0 30.5 -13.5t13.5 -30.5v-10q0 -17 -13.5 -30.5t-30.5 -13.5h-11q-17 0 -30 13.5t-13 30.5z M295 730v10q0 17 13 30.5t30 13.5h11q17 0 30.5 -13.5t13.5 -30.5v-10q0 -17 -13.5 -30.5t-30.5 -13.5h-11q-17 0 -30 13.5t-13 30.5z" />
<glyph unicode="&#x17d;" horiz-adv-x="471" d="M29 0v97q0 29 16 50l297 385q4 5 4 13v11h-295v88h391v-96q0 -29 -16 -51l-298 -383q-4 -5 -4 -14v-12h318v-88h-413zM120 816h83l46 -61l48 61h80l-101 -134h-54z" />
<glyph unicode="&#x17e;" horiz-adv-x="417" d="M27 0v82q0 38 21 59l227 219q9 8 9 19v7h-248v77h342v-82q0 -38 -21 -59l-227 -219q-9 -8 -9 -19v-7h269v-77h-363zM80 653h83l46 -61l48 61h80l-101 -134h-54z" />
<glyph unicode="&#x192;" horiz-adv-x="501" d="M80 -146l8 85l57 -9l35 31l33 354h-59l7 76h60l12 144q3 30 28 53l39 36q28 27 57 22l64 -9l-8 -84l-58 8l-35 -31l-11 -139h74l-7 -76h-75l-34 -359q-3 -31 -27 -53l-40 -36q-26 -24 -56 -21z" />
<glyph unicode="&#x2c6;" horiz-adv-x="373" d="M58 519l101 134h54l102 -134h-83l-45 61l-48 -61h-81z" />
<glyph unicode="&#x2c7;" horiz-adv-x="373" d="M58 653h83l46 -61l48 61h80l-101 -134h-54z" />
<glyph unicode="&#x2d8;" horiz-adv-x="421" d="M64 653h57q24 -77 89 -77t89 77h57q-12 -59 -49 -100t-97 -41t-97 41t-49 100z" />
<glyph unicode="&#x2d9;" horiz-adv-x="210" d="M57 593v10q0 17 12.5 29.5t29.5 12.5h10q16 0 29 -13t13 -29v-10q0 -16 -13 -29t-29 -13h-10q-17 0 -29.5 12.5t-12.5 29.5z" />
<glyph unicode="&#x2da;" horiz-adv-x="300" d="M50 601q0 42 29 71t70 29q42 0 71.5 -29t29.5 -71t-29.5 -71t-71.5 -29q-41 0 -70 29t-29 71zM101 601q0 -19 14.5 -33.5t33.5 -14.5q20 0 34.5 14t14.5 34t-14.5 34.5t-34.5 14.5q-19 0 -33.5 -15t-14.5 -34z" />
<glyph unicode="&#x2db;" horiz-adv-x="286" d="M65 -104q0 33 24.5 60t61.5 36h80q-51 -12 -76.5 -27t-25.5 -42q0 -17 11.5 -28t30.5 -11q21 0 50 10v-55q-39 -14 -70 -14q-37 0 -61.5 19t-24.5 52z" />
<glyph unicode="&#x2dc;" horiz-adv-x="423" d="M66 579q37 73 92 73q19 0 59 -20q36 -19 50 -19q13 0 22.5 8.5t24.5 31.5l45 -33q-37 -73 -93 -73q-19 0 -59 19q-2 1 -13.5 8t-20 10t-16.5 3q-21 0 -46 -41z" />
<glyph unicode="&#x2dd;" horiz-adv-x="415" d="M61 519l64 134h97l-99 -134h-62zM196 519l64 134h96l-99 -134h-61z" />
<glyph unicode="&#x3c0;" d="M76 372q0 50 2 79t10 55t20 38t37.5 21t56 11t81.5 2t81.5 -2t56 -11t37 -21t20 -38t10 -55t1.5 -79t-1.5 -79t-10 -55.5t-20 -38t-37 -21t-56 -11.5t-81.5 -2t-81.5 2t-56 11t-37.5 21t-20 38t-10 55.5t-2 79.5zM133 323l32 -56l105 82l-19 -131h65l-20 131l105 -82 l32 56l-123 50l123 49l-32 56l-105 -82l19 131h-64l19 -131l-105 81l-32 -56l123 -48z" />
<glyph unicode="&#x2000;" horiz-adv-x="408" />
<glyph unicode="&#x2001;" horiz-adv-x="817" />
<glyph unicode="&#x2002;" horiz-adv-x="408" />
<glyph unicode="&#x2003;" horiz-adv-x="817" />
<glyph unicode="&#x2004;" horiz-adv-x="272" />
<glyph unicode="&#x2005;" horiz-adv-x="204" />
<glyph unicode="&#x2006;" horiz-adv-x="136" />
<glyph unicode="&#x2007;" horiz-adv-x="136" />
<glyph unicode="&#x2008;" horiz-adv-x="102" />
<glyph unicode="&#x2009;" horiz-adv-x="163" />
<glyph unicode="&#x200a;" horiz-adv-x="45" />
<glyph unicode="&#x2010;" horiz-adv-x="228" d="M8 254v75h212v-75h-212z" />
<glyph unicode="&#x2011;" horiz-adv-x="228" d="M8 254v75h212v-75h-212z" />
<glyph unicode="&#x2012;" horiz-adv-x="228" d="M8 254v75h212v-75h-212z" />
<glyph unicode="&#x2013;" horiz-adv-x="390" d="M8 254v75h374v-75h-374z" />
<glyph unicode="&#x2014;" horiz-adv-x="681" d="M8 254v75h664v-75h-664z" />
<glyph unicode="&#x2018;" horiz-adv-x="178" d="M44 495v10q0 24 11 48l43 93h42l-37 -92q18 -1 31 -15t13 -34v-10q0 -20 -13.5 -34.5t-31.5 -14.5h-13q-19 0 -32 14.5t-13 34.5z" />
<glyph unicode="&#x2019;" horiz-adv-x="178" d="M31 587v10q0 20 13.5 34.5t31.5 14.5h13q19 0 32 -14.5t13 -34.5v-10q0 -24 -11 -48l-43 -93h-42l37 92q-18 1 -31 15t-13 34z" />
<glyph unicode="&#x201a;" horiz-adv-x="178" d="M31 46v10q0 20 13.5 34.5t31.5 14.5h13q19 0 32 -14.5t13 -34.5v-10q0 -24 -11 -48l-43 -93h-42l37 92q-18 1 -31 15t-13 34z" />
<glyph unicode="&#x201c;" horiz-adv-x="314" d="M44 495v10q0 24 11 48l43 93h42l-37 -92q18 -1 31 -15t13 -34v-10q0 -20 -13.5 -34.5t-31.5 -14.5h-13q-19 0 -32 14.5t-13 34.5zM179 495v10q0 24 11 48l43 93h42l-37 -92q18 -1 31 -15t13 -34v-10q0 -20 -13.5 -34.5t-31.5 -14.5h-13q-19 0 -32 14.5t-13 34.5z" />
<glyph unicode="&#x201d;" horiz-adv-x="314" d="M31 587v10q0 20 13.5 34.5t31.5 14.5h13q19 0 32 -14.5t13 -34.5v-10q0 -24 -11 -48l-43 -93h-42l37 92q-18 1 -31 15t-13 34zM166 587v10q0 20 13.5 34.5t31.5 14.5h13q19 0 32 -14.5t13 -34.5v-10q0 -24 -11 -48l-43 -93h-42l37 92q-18 1 -31 15t-13 34z" />
<glyph unicode="&#x201e;" horiz-adv-x="314" d="M31 46v10q0 20 13.5 34.5t31.5 14.5h13q19 0 32 -14.5t13 -34.5v-10q0 -24 -11 -48l-43 -93h-42l37 92q-18 1 -31 15t-13 34zM166 46v10q0 20 13.5 34.5t31.5 14.5h13q19 0 32 -14.5t13 -34.5v-10q0 -24 -11 -48l-43 -93h-42l37 92q-18 1 -31 15t-13 34z" />
<glyph unicode="&#x2020;" horiz-adv-x="468" d="M56 381v91h71l61 -3v177h92v-177l61 3h71v-91h-71l-61 3v-296l-9 -211h-74l-9 211v296l-61 -3h-71z" />
<glyph unicode="&#x2021;" horiz-adv-x="468" d="M56 51v91h71l61 -3v62l5 60l-5 61v62l-61 -3h-71v91h71l61 -3v177h92v-177l61 3h71v-91h-71l-61 3v-62l-6 -61l6 -60v-62l61 3h71v-91h-71l-61 3v-177h-92v177l-61 -3h-71z" />
<glyph unicode="&#x2022;" horiz-adv-x="432" d="M66 307v30q0 54 39.5 94t92.5 40h33q52 0 93 -40t41 -94v-30q0 -54 -41 -94t-93 -40h-33q-53 0 -92.5 40t-39.5 94z" />
<glyph unicode="&#x2026;" horiz-adv-x="691" d="M42 46v10q0 20 14.5 34.5t33.5 14.5h12q19 0 34 -14.5t15 -34.5v-10q0 -20 -15 -34.5t-34 -14.5h-12q-19 0 -33.5 14.5t-14.5 34.5zM291 46v10q0 20 14.5 34.5t33.5 14.5h12q19 0 34 -14.5t15 -34.5v-10q0 -20 -15 -34.5t-34 -14.5h-12q-19 0 -33.5 14.5t-14.5 34.5z M540 46v10q0 20 14.5 34.5t33.5 14.5h12q19 0 34 -14.5t15 -34.5v-10q0 -20 -15 -34.5t-34 -14.5h-12q-19 0 -33.5 14.5t-14.5 34.5z" />
<glyph unicode="&#x202f;" horiz-adv-x="163" />
<glyph unicode="&#x2030;" horiz-adv-x="859" d="M40 443v137q0 22 11 33l27 26q15 13 32 13h75q17 0 32 -13l27 -26q12 -12 12 -33v-137q0 -22 -13 -33l-27 -26q-13 -13 -33 -13h-71q-17 0 -32 13l-28 26q-12 12 -12 33zM88 0l352 652h68l-353 -652h-67zM100 448l18 -18h60l17 18v127l-18 18h-58l-19 -18v-127zM339 71 v138q0 22 11 33l27 26q13 13 32 13h75q19 0 32 -13l27 -26q11 -11 11 -33v-138q0 -22 -12 -32l-27 -27q-13 -12 -33 -12h-71q-19 0 -33 12l-27 27q-12 10 -12 32zM399 77l18 -18h59l18 18v126l-18 19h-59l-18 -19v-126zM604 71v138q0 19 12 33l26 26q15 13 33 13h74 q20 0 33 -13l26 -26q12 -14 12 -33v-138q0 -20 -12 -32l-28 -27q-12 -12 -32 -12h-72q-20 0 -32 12l-27 27q-13 11 -13 32zM665 77l17 -18h60l17 18v126l-18 19h-58l-18 -19v-126z" />
<glyph unicode="&#x2039;" horiz-adv-x="318" d="M41 280v24l151 151h82l-159 -159v-8l162 -162h-80z" />
<glyph unicode="&#x203a;" horiz-adv-x="318" d="M41 126l162 162v8l-159 159h82l151 -151v-24l-156 -154h-80z" />
<glyph unicode="&#x2044;" horiz-adv-x="122" d="M-147 0l353 652h63l-353 -652h-63z" />
<glyph unicode="&#x205f;" horiz-adv-x="204" />
<glyph unicode="&#x20ac;" horiz-adv-x="525" d="M4 231v66h66v52h-66v66h66v110q0 32 22 54l52 52q20 21 54 21h117q64 0 104 -46l67 -75l-69 -50l-65 66q-17 17 -39 17h-109l-43 -44v-105h174l-21 -66h-153v-52h137l-22 -66h-115v-96q0 -24 15.5 -39.5t40.5 -15.5h127l82 83l69 -49l-90 -100q-20 -22 -54 -22h-138 q-62 0 -102.5 41t-40.5 103v95h-66z" />
<glyph unicode="&#x2117;" horiz-adv-x="687" d="M21 323q0 134 94.5 228.5t228.5 94.5q133 0 227.5 -94.5t94.5 -228.5t-94 -228.5t-228 -94.5t-228.5 94.5t-94.5 228.5zM71 323q0 -113 80 -193t193 -80q112 0 192.5 80t80.5 193t-80.5 193t-192.5 80q-113 0 -193 -80t-80 -193zM241 124v396h155q39 0 64.5 -25t25.5 -64 v-76q0 -19 -13 -32l-31 -33q-12 -13 -34 -13h-111v-153h-56zM297 331h106l26 28v73q0 14 -9.5 24t-25.5 10h-97v-135z" />
<glyph unicode="&#x2122;" horiz-adv-x="631" d="M32 598v48h225v-48h-88v-302h-49v302h-88zM303 296v350h51l73 -210h3l74 210h50v-350h-49v217h-1l-50 -140h-51l-50 140h-1v-217h-49z" />
<glyph unicode="&#x2126;" d="M76 372q0 50 2 79t10 55t20 38t37.5 21t56 11t81.5 2t81.5 -2t56 -11t37 -21t20 -38t10 -55t1.5 -79t-1.5 -79t-10 -55.5t-20 -38t-37 -21t-56 -11.5t-81.5 -2t-81.5 2t-56 11t-37.5 21t-20 38t-10 55.5t-2 79.5zM133 323l32 -56l105 82l-19 -131h65l-20 131l105 -82 l32 56l-123 50l123 49l-32 56l-105 -82l19 131h-64l19 -131l-105 81l-32 -56l123 -48z" />
<glyph unicode="&#x2202;" d="M76 372q0 50 2 79t10 55t20 38t37.5 21t56 11t81.5 2t81.5 -2t56 -11t37 -21t20 -38t10 -55t1.5 -79t-1.5 -79t-10 -55.5t-20 -38t-37 -21t-56 -11.5t-81.5 -2t-81.5 2t-56 11t-37.5 21t-20 38t-10 55.5t-2 79.5zM133 323l32 -56l105 82l-19 -131h65l-20 131l105 -82 l32 56l-123 50l123 49l-32 56l-105 -82l19 131h-64l19 -131l-105 81l-32 -56l123 -48z" />
<glyph unicode="&#x2206;" d="M76 372q0 50 2 79t10 55t20 38t37.5 21t56 11t81.5 2t81.5 -2t56 -11t37 -21t20 -38t10 -55t1.5 -79t-1.5 -79t-10 -55.5t-20 -38t-37 -21t-56 -11.5t-81.5 -2t-81.5 2t-56 11t-37.5 21t-20 38t-10 55.5t-2 79.5zM133 323l32 -56l105 82l-19 -131h65l-20 131l105 -82 l32 56l-123 50l123 49l-32 56l-105 -82l19 131h-64l19 -131l-105 81l-32 -56l123 -48z" />
<glyph unicode="&#x220f;" d="M76 372q0 50 2 79t10 55t20 38t37.5 21t56 11t81.5 2t81.5 -2t56 -11t37 -21t20 -38t10 -55t1.5 -79t-1.5 -79t-10 -55.5t-20 -38t-37 -21t-56 -11.5t-81.5 -2t-81.5 2t-56 11t-37.5 21t-20 38t-10 55.5t-2 79.5zM133 323l32 -56l105 82l-19 -131h65l-20 131l105 -82 l32 56l-123 50l123 49l-32 56l-105 -82l19 131h-64l19 -131l-105 81l-32 -56l123 -48z" />
<glyph unicode="&#x2211;" d="M76 372q0 50 2 79t10 55t20 38t37.5 21t56 11t81.5 2t81.5 -2t56 -11t37 -21t20 -38t10 -55t1.5 -79t-1.5 -79t-10 -55.5t-20 -38t-37 -21t-56 -11.5t-81.5 -2t-81.5 2t-56 11t-37.5 21t-20 38t-10 55.5t-2 79.5zM133 323l32 -56l105 82l-19 -131h65l-20 131l105 -82 l32 56l-123 50l123 49l-32 56l-105 -82l19 131h-64l19 -131l-105 81l-32 -56l123 -48z" />
<glyph unicode="&#x2212;" horiz-adv-x="564" d="M75 274v75h415v-75h-415z" />
<glyph unicode="&#x221a;" d="M76 372q0 50 2 79t10 55t20 38t37.5 21t56 11t81.5 2t81.5 -2t56 -11t37 -21t20 -38t10 -55t1.5 -79t-1.5 -79t-10 -55.5t-20 -38t-37 -21t-56 -11.5t-81.5 -2t-81.5 2t-56 11t-37.5 21t-20 38t-10 55.5t-2 79.5zM133 323l32 -56l105 82l-19 -131h65l-20 131l105 -82 l32 56l-123 50l123 49l-32 56l-105 -82l19 131h-64l19 -131l-105 81l-32 -56l123 -48z" />
<glyph unicode="&#x221e;" d="M76 372q0 50 2 79t10 55t20 38t37.5 21t56 11t81.5 2t81.5 -2t56 -11t37 -21t20 -38t10 -55t1.5 -79t-1.5 -79t-10 -55.5t-20 -38t-37 -21t-56 -11.5t-81.5 -2t-81.5 2t-56 11t-37.5 21t-20 38t-10 55.5t-2 79.5zM133 323l32 -56l105 82l-19 -131h65l-20 131l105 -82 l32 56l-123 50l123 49l-32 56l-105 -82l19 131h-64l19 -131l-105 81l-32 -56l123 -48z" />
<glyph unicode="&#x222b;" d="M76 372q0 50 2 79t10 55t20 38t37.5 21t56 11t81.5 2t81.5 -2t56 -11t37 -21t20 -38t10 -55t1.5 -79t-1.5 -79t-10 -55.5t-20 -38t-37 -21t-56 -11.5t-81.5 -2t-81.5 2t-56 11t-37.5 21t-20 38t-10 55.5t-2 79.5zM133 323l32 -56l105 82l-19 -131h65l-20 131l105 -82 l32 56l-123 50l123 49l-32 56l-105 -82l19 131h-64l19 -131l-105 81l-32 -56l123 -48z" />
<glyph unicode="&#x2248;" d="M76 372q0 50 2 79t10 55t20 38t37.5 21t56 11t81.5 2t81.5 -2t56 -11t37 -21t20 -38t10 -55t1.5 -79t-1.5 -79t-10 -55.5t-20 -38t-37 -21t-56 -11.5t-81.5 -2t-81.5 2t-56 11t-37.5 21t-20 38t-10 55.5t-2 79.5zM133 323l32 -56l105 82l-19 -131h65l-20 131l105 -82 l32 56l-123 50l123 49l-32 56l-105 -82l19 131h-64l19 -131l-105 81l-32 -56l123 -48z" />
<glyph unicode="&#x2260;" d="M76 372q0 50 2 79t10 55t20 38t37.5 21t56 11t81.5 2t81.5 -2t56 -11t37 -21t20 -38t10 -55t1.5 -79t-1.5 -79t-10 -55.5t-20 -38t-37 -21t-56 -11.5t-81.5 -2t-81.5 2t-56 11t-37.5 21t-20 38t-10 55.5t-2 79.5zM133 323l32 -56l105 82l-19 -131h65l-20 131l105 -82 l32 56l-123 50l123 49l-32 56l-105 -82l19 131h-64l19 -131l-105 81l-32 -56l123 -48z" />
<glyph unicode="&#x2264;" horiz-adv-x="564" d="M75 105v74h415v-74h-415zM75 346v44l415 135v-73l-264 -84l264 -77v-74z" />
<glyph unicode="&#x2265;" horiz-adv-x="564" d="M75 105v74h415v-74h-415zM75 217v74l264 77l-264 84v73l415 -135v-44z" />
<glyph unicode="&#x25ca;" d="M76 372q0 50 2 79t10 55t20 38t37.5 21t56 11t81.5 2t81.5 -2t56 -11t37 -21t20 -38t10 -55t1.5 -79t-1.5 -79t-10 -55.5t-20 -38t-37 -21t-56 -11.5t-81.5 -2t-81.5 2t-56 11t-37.5 21t-20 38t-10 55.5t-2 79.5zM133 323l32 -56l105 82l-19 -131h65l-20 131l105 -82 l32 56l-123 50l123 49l-32 56l-105 -82l19 131h-64l19 -131l-105 81l-32 -56l123 -48z" />
<glyph unicode="&#x25fc;" horiz-adv-x="465" d="M0 0v465h465v-465h-465z" />
<glyph unicode="&#xf8ff;" d="M76 372q0 50 2 79t10 55t20 38t37.5 21t56 11t81.5 2t81.5 -2t56 -11t37 -21t20 -38t10 -55t1.5 -79t-1.5 -79t-10 -55.5t-20 -38t-37 -21t-56 -11.5t-81.5 -2t-81.5 2t-56 11t-37.5 21t-20 38t-10 55.5t-2 79.5zM133 323l32 -56l105 82l-19 -131h65l-20 131l105 -82 l32 56l-123 50l123 49l-32 56l-105 -82l19 131h-64l19 -131l-105 81l-32 -56l123 -48z" />
<glyph horiz-adv-x="630" d="M75 237v44l168 169q19 21 54 21h31v-48l-130 -124h357v-80h-357l130 -124v-48h-31q-35 0 -54 21z" />
<glyph horiz-adv-x="574" d="M75 246v31q0 35 21 54l169 168h44l169 -168q21 -19 21 -54v-31h-48l-124 130v-357h-80v357l-124 -130h-48z" />
<glyph horiz-adv-x="630" d="M75 219v80h357l-130 124v48h31q35 0 54 -21l168 -169v-44l-168 -169q-19 -21 -54 -21h-31v48l130 124h-357z" />
<glyph horiz-adv-x="574" d="M75 241v31h48l124 -130v357h80v-357l124 130h48v-31q0 -35 -21 -54l-169 -168h-44l-169 168q-21 19 -21 54z" />
<glyph horiz-adv-x="534" d="M75 186l1 238l31 31l238 1q29 2 53 -23l22 -22l-34 -34l-179 4l252 -252l-57 -57l-252 252l4 -179l-34 -34l-22 22q-23 23 -23 53z" />
<glyph horiz-adv-x="534" d="M75 129l252 252l-179 -4l-34 34l22 22q25 25 53 23l238 -1l31 -31l1 -238q0 -30 -23 -53l-22 -22l-34 34l4 179l-252 -252z" />
<glyph horiz-adv-x="534" d="M75 400l57 57l252 -252l-4 179l34 34l22 -22q23 -23 23 -53l-1 -238l-31 -31l-238 -1q-29 -1 -53 23l-22 22l34 34l179 -4z" />
<glyph horiz-adv-x="534" d="M75 343q0 30 23 53l22 22l34 -34l-4 -179l252 252l57 -57l-252 -252l179 4l34 -34l-22 -22q-24 -24 -53 -23l-238 1l-31 31z" />
</font>
</defs>
</svg>
