<?xml version="1.0" standalone="no"?>
<!DOCTYPE svg PUBLIC "-//W3C//DTD SVG 1.1//EN" "http://www.w3.org/Graphics/SVG/1.1/DTD/svg11.dtd" >
<svg xmlns="http://www.w3.org/2000/svg" xmlns:xlink="http://www.w3.org/1999/xlink" version="1.1">
<metadata></metadata>
<defs>
<font id="halebopxtrabold" horiz-adv-x="535" >
<font-face units-per-em="1000" ascent="750" descent="-250" />
<missing-glyph horiz-adv-x="220" />
<glyph unicode="fi" horiz-adv-x="566" d="M-6 359v104h71v22q0 63 42 105t106 42h118v-112h-113q-15 0 -24.5 -9.5t-9.5 -24.5v-23h281v-358h75v-105h-268v105h74v254h-162v-359h-119v359h-71zM340 570v10q0 24 18.5 42t42.5 18h10q24 0 42.5 -18t18.5 -42v-10q0 -23 -18.5 -41.5t-42.5 -18.5h-10 q-24 0 -42.5 18.5t-18.5 41.5z" />
<glyph unicode="fl" horiz-adv-x="485" d="M-7 359v104h70v22q0 63 42 105t106 42h220v-499q0 -67 10 -133h-119q-10 58 -10 118v402h-96q-15 0 -24.5 -9.5t-9.5 -24.5v-23h106v-104h-106v-359h-119v359h-70z" />
<glyph horiz-adv-x="0" />
<glyph horiz-adv-x="0" />
<glyph unicode="&#xd;" horiz-adv-x="288" />
<glyph unicode=" "  horiz-adv-x="220" />
<glyph unicode="&#x09;" horiz-adv-x="220" />
<glyph unicode="&#xa0;" horiz-adv-x="220" />
<glyph unicode="!" horiz-adv-x="210" d="M34 63v9q0 27 20 46.5t45 19.5h11q26 0 46 -19.5t20 -46.5v-9q0 -27 -20 -46.5t-46 -19.5h-11q-25 0 -45 19.5t-20 46.5zM43 464v182h124v-182l-8 -257h-109z" />
<glyph unicode="&#x22;" horiz-adv-x="308" d="M44 646h93l-6 -211h-82zM172 646h92l-6 -211h-81z" />
<glyph unicode="#" horiz-adv-x="509" d="M31 170v93h87l13 119h-78v93h88l20 178h99l-20 -178h70l20 178h99l-20 -178h69v-93h-79l-13 -119h71v-93h-82l-19 -177h-99l19 177h-70l-19 -177h-99l19 177h-76zM217 263h70l13 119h-70z" />
<glyph unicode="$" horiz-adv-x="513" d="M30 128l94 67l65 -67q9 -10 24 -10h106l32 31v72q0 27 -23 34l-155 39q-50 13 -81.5 54t-31.5 95v63q0 35 26 63l49 50q25 25 64 25h15v81h101l2 -82q59 -9 87 -41l76 -85l-94 -67l-65 66q-10 10 -24 10h-83l-31 -31v-55q0 -28 23 -34l154 -40q50 -13 82 -54t32 -94v-80 q0 -36 -27 -63l-48 -49q-24 -26 -64 -26h-19v-79h-102v79h-3q-66 0 -105 43z" />
<glyph unicode="%" horiz-adv-x="617" d="M32 437v129q0 30 16 44l26 24q18 18 43 18h69q25 0 43 -16l27 -25q17 -15 17 -44v-129q0 -30 -16 -44l-26 -24q-18 -18 -43 -18h-69q-25 0 -43 16l-27 25q-17 15 -17 44zM86 0l353 652h93l-353 -652h-93zM124 446l7 -7h42l8 7v112l-7 7h-42l-8 -7v-112zM344 85v129 q0 30 16 44l26 24q18 18 43 18h69q25 0 43 -16l27 -25q17 -15 17 -44v-129q0 -30 -16 -44l-26 -24q-18 -18 -43 -18h-69q-25 0 -43 16l-27 25q-17 15 -17 44zM436 94l7 -7h42l8 7v112l-7 7h-42l-8 -7v-112z" />
<glyph unicode="&#x26;" horiz-adv-x="531" d="M43 146v103q0 33 29 62l12 12q-32 45 -32 99v92q0 36 27 63l49 49q26 26 64 26h80q69 0 107 -42l75 -85l-93 -67l-67 66q-10 10 -24 10h-64l-30 -31v-81q0 -15 8 -25t21 -10h298v-118h-50v-139q0 -36 -27 -63l-48 -49q-26 -26 -65 -26h-115q-66 0 -110.5 44t-44.5 110z M167 145q0 -15 9.5 -25t24.5 -10h98l30 31v128h-132l-30 -32v-92z" />
<glyph unicode="'" horiz-adv-x="217" d="M62 646h93l-6 -211h-82z" />
<glyph unicode="(" horiz-adv-x="276" d="M42 318q0 69 18.5 151.5t47.5 126.5q21 32 96 88l60 -40l-53 -81q-17 -27 -32.5 -109.5t-15.5 -135.5q0 -54 15.5 -138t32.5 -110l53 -85l-61 -40q-71 57 -96 94q-29 43 -47 126t-18 153z" />
<glyph unicode=")" horiz-adv-x="276" d="M12 -15l53 85q17 26 32.5 110t15.5 138q0 53 -15.5 135.5t-32.5 109.5l-53 81l60 40q75 -56 96 -88q29 -44 47.5 -126.5t18.5 -151.5q0 -70 -18 -153t-47 -126q-25 -37 -96 -94z" />
<glyph unicode="*" horiz-adv-x="464" d="M87 510l33 90l44 -16l28 -20l-8 36v46h96v-47l-9 -35l29 20l44 16l33 -90l-43 -16l-35 -4l27 -19l30 -36l-73 -62l-30 35l-21 42l-21 -42l-30 -35l-73 62l30 36l27 19l-35 4z" />
<glyph unicode="+" horiz-adv-x="551" d="M60 258v106h162v162h106v-162h163v-106h-163v-163h-106v163h-162z" />
<glyph unicode="," horiz-adv-x="189" d="M26 63v9q0 26 19 46t43 20h13q25 0 43 -19.5t18 -46.5v-9q0 -28 -12 -53l-46 -100h-70l38 94q-46 17 -46 59z" />
<glyph unicode="-" horiz-adv-x="252" d="M7 241v105h238v-105h-238z" />
<glyph unicode="." horiz-adv-x="211" d="M35 63v9q0 27 20 46.5t45 19.5h11q26 0 46 -19.5t20 -46.5v-9q0 -27 -20 -46.5t-46 -19.5h-11q-25 0 -45 19.5t-20 46.5z" />
<glyph unicode="/" horiz-adv-x="500" d="M0 -123l398 775h102l-398 -775h-102z" />
<glyph unicode="0" horiz-adv-x="522" d="M43 146v368q0 37 25 62l49 50q24 26 65 26h143q66 0 110 -44t44 -110v-368q0 -36 -27 -63l-48 -49q-26 -26 -65 -26h-143q-66 0 -109.5 44t-43.5 110zM167 145q0 -15 9 -25t24 -10h125l30 31v358q0 15 -9.5 25t-24.5 10h-125l-29 -31v-358z" />
<glyph unicode="1" horiz-adv-x="438" d="M42 566l96 61q31 19 71 19h79v-531h108v-115h-341v115h109v399l-67 -40z" />
<glyph unicode="2" horiz-adv-x="495" d="M27 525l75 85q38 42 107 42h88q66 0 110 -44t44 -110v-96q0 -42 -29 -63l-255 -196v-25h285v-118h-409v152q0 45 37 74l248 189v84q0 15 -9.5 25t-25.5 10h-96l-77 -76z" />
<glyph unicode="3" horiz-adv-x="508" d="M27 119l93 67l67 -66q10 -10 24 -10h100l30 31v89q0 15 -8 25t-21 10h-116v118h107l30 32v84q0 15 -9.5 25t-24.5 10h-92l-77 -76l-93 67l75 85q38 42 107 42h83q66 0 110.5 -44t44.5 -110v-95q0 -33 -29 -62l-9 -9q46 -41 46 -102v-100q0 -36 -27 -63l-49 -49 q-26 -26 -64 -26h-116q-69 0 -107 42z" />
<glyph unicode="4" horiz-adv-x="498" d="M16 134v85l256 427h146v-395h62v-117h-62v-134h-124v134h-278zM166 251h128v212z" />
<glyph unicode="5" horiz-adv-x="509" d="M32 119l93 67l67 -66q10 -10 24 -10h95l32 31v124q0 15 -9.5 25t-24.5 10h-241v344h384v-118h-264v-109h124q66 0 110.5 -43t44.5 -109v-134q0 -33 -28 -63l-48 -49q-27 -27 -64 -27h-113q-69 0 -107 42z" />
<glyph unicode="6" horiz-adv-x="515" d="M43 146v368q0 35 26 63l48 49q24 26 65 26h120q69 0 107 -42l59 -67l-95 -67l-47 48q-10 10 -26 10h-104l-29 -31v-86h151q66 0 110 -44t44 -110v-133q0 -36 -27 -63l-48 -49q-26 -26 -65 -26h-136q-66 0 -109.5 44t-43.5 110zM167 145q0 -15 9 -25t24 -10h118l30 31v123 q0 15 -9.5 25t-24.5 10h-147v-154z" />
<glyph unicode="7" horiz-adv-x="445" d="M16 526v118h411v-98q0 -34 -17 -66l-242 -480h-141l260 508q5 10 5 15v3h-276z" />
<glyph unicode="8" horiz-adv-x="506" d="M43 146v97q0 34 28 62l13 13q-19 25 -25 45t-6 53v98q0 36 27 63l49 49q26 26 64 26h106q66 0 110.5 -44t44.5 -110v-95q0 -34 -28 -62l-9 -9q46 -41 46 -102v-100q0 -36 -27 -63l-49 -49q-26 -26 -64 -26h-125q-66 0 -110.5 44t-44.5 110zM167 145q0 -15 9.5 -25 t24.5 -10h108l30 31v88q0 15 -8 25t-21 10h-114l-29 -31v-88zM177 417q0 -15 8 -25t21 -10h95l29 31v86q0 15 -9.5 25t-24.5 10h-89l-30 -31v-86z" />
<glyph unicode="9" horiz-adv-x="515" d="M43 391v123q0 36 27 63l48 49q26 26 65 26h136q66 0 109.5 -44t43.5 -110v-368q0 -35 -26 -63l-48 -49q-24 -26 -65 -26h-120q-69 0 -107 42l-59 67l95 67l47 -48q10 -10 26 -10h104l29 31v96h-151q-66 0 -110 44t-44 110zM167 390q0 -15 9.5 -25t24.5 -10h147v144 q0 15 -9 25t-24 10h-118l-30 -31v-113z" />
<glyph unicode=":" horiz-adv-x="227" d="M42 63v9q0 27 19.5 46.5t45.5 19.5h11q25 0 45.5 -20t20.5 -46v-9q0 -27 -20.5 -46.5t-45.5 -19.5h-11q-26 0 -45.5 19.5t-19.5 46.5zM42 383v9q0 27 20 46.5t45 19.5h11q26 0 46 -19.5t20 -46.5v-9q0 -27 -20 -46.5t-46 -19.5h-11q-25 0 -45 19.5t-20 46.5z" />
<glyph unicode=";" horiz-adv-x="210" d="M28 383v9q0 27 20 46.5t45 19.5h11q26 0 46 -19.5t20 -46.5v-9q0 -27 -20 -46.5t-46 -19.5h-11q-25 0 -45 19.5t-20 46.5zM29 63v9q0 26 19 46t43 20h13q25 0 43 -19.5t18 -46.5v-9q0 -28 -12 -53l-46 -100h-70l38 94q-46 17 -46 59z" />
<glyph unicode="&#x3c;" horiz-adv-x="551" d="M60 282v63l431 193v-108l-275 -118l275 -125v-108z" />
<glyph unicode="=" horiz-adv-x="551" d="M60 180v106h431v-106h-431zM60 335v106h431v-106h-431z" />
<glyph unicode="&#x3e;" horiz-adv-x="550" d="M60 79v108l275 125l-275 118v108l431 -193v-63z" />
<glyph unicode="?" horiz-adv-x="462" d="M16 543l73 75q34 34 83 34h98q66 0 110 -44t44 -110v-64q0 -42 -30 -64l-146 -108v-55h-123v55q0 55 29 76l147 109v52q0 15 -9.5 25t-25.5 10h-99l-64 -66zM115 63v9q0 27 20 46.5t45 19.5h11q26 0 46 -19.5t20 -46.5v-9q0 -27 -20 -46.5t-46 -19.5h-11q-25 0 -45 19.5 t-20 46.5z" />
<glyph unicode="@" horiz-adv-x="626" d="M17 150q0 137 89 226t222 89q121 0 201 -73.5t80 -188.5q0 -94 -53 -152.5t-135 -58.5q-56 0 -75 32q-39 -24 -76 -24q-53 0 -82.5 38t-29.5 103q0 85 47.5 139.5t121.5 54.5q56 0 125 -33l-32 -197q-2 -10 -2 -19q0 -12 3.5 -16.5t13.5 -4.5q37 0 63.5 38t26.5 95 q0 82 -56 133.5t-142 51.5q-98 0 -162 -67t-64 -163q0 -94 64.5 -152t163.5 -58h211v-79h-211q-139 0 -225.5 76t-86.5 210zM247 148q0 -72 49 -72q22 0 38 16l24 168q-6 2 -19 2q-40 0 -66 -31.5t-26 -82.5z" />
<glyph unicode="A" horiz-adv-x="585" d="M8 0l217 644h136l216 -644h-130l-47 144h-215l-46 -144h-131zM224 262h138l-69 214z" />
<glyph unicode="B" horiz-adv-x="527" d="M47 0v644h276q66 0 110.5 -44t44.5 -110v-80q0 -31 -31 -62l-5 -5q23 -17 37 -46.5t14 -59.5v-99q0 -37 -26 -63l-49 -49q-26 -26 -64 -26h-307zM171 118h168l30 31v89q0 15 -8 24.5t-21 9.5h-169v-154zM171 390h152l31 31v70q0 15 -9.5 25t-24.5 10h-149v-136z" />
<glyph unicode="C" horiz-adv-x="524" d="M47 146v368q0 35 26 63l48 49q24 26 65 26h130q69 0 107 -42l75 -85l-93 -67l-67 66q-10 10 -24 10h-114l-29 -31v-358q0 -15 9 -25t24 -10h131l77 76l95 -66l-92 -103q-9 -10 -28 -17.5t-37 -7.5h-150q-65 0 -109 44t-44 110z" />
<glyph unicode="D" horiz-adv-x="534" d="M47 0v644h293q66 0 110 -44t44 -110v-352q0 -36 -27 -63l-49 -49q-26 -26 -64 -26h-307zM172 118h167l31 31v342q0 15 -9.5 25t-24.5 10h-164v-408z" />
<glyph unicode="E" horiz-adv-x="469" d="M47 0v644h395v-118h-271v-143h225v-118h-225v-147h271v-118h-395z" />
<glyph unicode="F" horiz-adv-x="452" d="M47 0v644h387v-118h-263v-143h217v-118h-217v-265h-124z" />
<glyph unicode="G" horiz-adv-x="558" d="M47 146v368q0 35 26 63l49 50q25 25 64 25h147q69 0 107 -42l75 -85l-93 -67l-67 66q-10 10 -24 10h-131l-29 -31v-358q0 -15 9 -25t24 -10h153l30 31v109h-117v118h241v-238q0 -36 -27 -63l-48 -49q-26 -26 -65 -26h-171q-65 0 -109 44t-44 110z" />
<glyph unicode="H" horiz-adv-x="543" d="M47 0v644h125v-258h201v258h123v-644h-123v268h-201v-268h-125z" />
<glyph unicode="I" horiz-adv-x="384" d="M31 0v110h100v424h-100v110h322v-110h-98v-424h98v-110h-322z" />
<glyph unicode="J" horiz-adv-x="472" d="M13 119l93 67l67 -66q10 -10 24 -10h77l29 31v385h-209v118h333v-514q0 -35 -26 -63l-48 -49q-24 -26 -65 -26h-93q-69 0 -107 42z" />
<glyph unicode="K" horiz-adv-x="538" d="M47 0v644h124v-256h25q9 25 32 55l147 201h148l-193 -266q-18 -26 -18 -49q0 -27 18 -52l192 -277h-147l-148 216q-21 30 -29 54h-27v-270h-124z" />
<glyph unicode="L" horiz-adv-x="443" d="M47 0v644h124v-526h254v-118h-378z" />
<glyph unicode="M" horiz-adv-x="650" d="M47 0v644h138l140 -321l140 321h138v-644h-124v373l-96 -213h-116l-96 213v-373h-124z" />
<glyph unicode="N" horiz-adv-x="550" d="M47 0v644h121l212 -397v397h123v-644h-121l-212 382v-382h-123z" />
<glyph unicode="O" horiz-adv-x="557" d="M47 146v368q0 37 25 62l49 50q24 26 65 26h170q66 0 110 -44t44 -110v-368q0 -36 -27 -63l-48 -49q-26 -26 -65 -26h-170q-66 0 -109.5 44t-43.5 110zM171 145q0 -15 9 -25t24 -10h152l30 31v358q0 15 -9.5 25t-24.5 10h-152l-29 -31v-358z" />
<glyph unicode="P" horiz-adv-x="496" d="M47 0v644h270q66 0 110.5 -44t44.5 -110v-120q0 -35 -27 -62l-48 -48q-26 -26 -65 -26h-161v-234h-124zM171 352h147l30 29v110q0 15 -9.5 25t-24.5 10h-143v-174z" />
<glyph unicode="Q" horiz-adv-x="557" d="M47 146v368q0 37 25 62l49 50q24 26 65 26h170q66 0 110 -44t44 -110v-368q0 -36 -27 -63l-48 -49q-26 -26 -65 -26h-3l42 -92h-128l-41 92h-40q-66 0 -109.5 44t-43.5 110zM171 145q0 -15 9 -25t24 -10h11v44h125v-44h16l30 31v358q0 15 -9.5 25t-24.5 10h-152l-29 -31 v-358z" />
<glyph unicode="R" horiz-adv-x="527" d="M47 0v644h269q66 0 110.5 -44t44.5 -110v-112q0 -35 -27 -62l-48 -48q-12 -12 -28 -19l1 -1l144 -248h-137l-139 242h-66v-242h-124zM171 360h147l29 29v102q0 15 -9.5 25t-24.5 10h-142v-166z" />
<glyph unicode="S" horiz-adv-x="531" d="M26 119l93 67l67 -66q10 -10 24 -10h130l29 31v80q0 28 -21 33l-183 39q-51 11 -83 52.5t-32 97.5v71q0 35 26 63l48 49q24 26 65 26h130q69 0 107 -42l75 -85l-93 -67l-67 66q-10 10 -24 10h-114l-29 -31v-63q0 -28 22 -33l182 -40q51 -11 83 -52.5t32 -96.5v-88 q0 -35 -26 -63l-48 -49q-24 -26 -65 -26h-146q-69 0 -107 42z" />
<glyph unicode="T" horiz-adv-x="468" d="M11 526v118h446v-118h-161v-526h-124v526h-161z" />
<glyph unicode="U" horiz-adv-x="544" d="M47 146v498h124v-499q0 -15 9 -25t24 -10h139l30 31v503h124v-514q0 -36 -27 -63l-48 -49q-26 -26 -65 -26h-157q-66 0 -109.5 44t-43.5 110z" />
<glyph unicode="V" horiz-adv-x="565" d="M8 644h128l145 -467l146 467h130l-207 -644h-138z" />
<glyph unicode="W" horiz-adv-x="770" d="M13 644h130l89 -446l89 446h128l89 -446l89 446h130l-147 -644h-139l-86 403l-86 -403h-139z" />
<glyph unicode="X" horiz-adv-x="550" d="M8 0l159 310q8 16 20 22q-9 4 -20 22l-144 290h137l108 -231q3 -6 7 -10q4 4 7 10l108 231h137l-144 -290q-9 -18 -20 -22q12 -6 20 -22l159 -310h-135l-125 254q-4 8 -7 10q-3 -2 -7 -10l-125 -254h-135z" />
<glyph unicode="Y" horiz-adv-x="540" d="M7 644h134l122 -268q3 -7 7 -7t7 7l122 268h134l-149 -316q-16 -35 -52 -57v-271h-124v271q-36 22 -52 57z" />
<glyph unicode="Z" horiz-adv-x="477" d="M24 0v109q0 34 19 58l264 342q4 5 4 14v3h-266v118h408v-108q0 -36 -19 -59l-266 -341q-4 -5 -4 -14v-4h289v-118h-429z" />
<glyph unicode="[" horiz-adv-x="261" d="M60 -55v726h193v-81h-78v-564h78v-81h-193z" />
<glyph unicode="\" horiz-adv-x="372" d="M0 652h100l272 -652h-99z" />
<glyph unicode="]" horiz-adv-x="261" d="M8 26h78v564h-78v81h193v-726h-193v81z" />
<glyph unicode="^" horiz-adv-x="570" d="M56 270l197 376h64l197 -376h-107l-122 240l-122 -240h-107z" />
<glyph unicode="_" horiz-adv-x="446" d="M7 -62h431v-90h-431v90z" />
<glyph unicode="`" horiz-adv-x="283" d="M26 565v104l209 -88v-76z" />
<glyph unicode="a" horiz-adv-x="475" d="M32 138v36q0 44 29 64l45 31q24 15 56 15h140v42q0 14 -9.5 23.5t-24.5 9.5h-82l-51 -44l-87 58l76 79q18 19 58 19h91q64 0 106 -41.5t42 -104.5v-192q0 -67 10 -133h-104l-6 34l-10 -9q-37 -33 -57 -33h-74q-64 0 -106 41.5t-42 104.5zM151 137q0 -14 9.5 -23.5 t24.5 -9.5h65l52 46v41h-123l-28 -20v-34z" />
<glyph unicode="b" horiz-adv-x="482" d="M44 0q10 66 10 133v511h119v-173h122q64 0 106 -41.5t42 -104.5v-206q0 -35 -26 -61l-40 -40q-26 -26 -64 -26h-92q-20 0 -57 33l-10 9l-6 -34h-104zM173 150l52 -46h74l25 26v196q0 14 -9.5 23.5t-24.5 9.5h-117v-209z" />
<glyph unicode="c" horiz-adv-x="460" d="M39 138v206q0 35 26 61l40 40q26 26 64 26h103q68 0 108 -43l51 -55l-88 -58l-34 33q-11 11 -26 11h-100l-25 -26v-196q0 -14 9.5 -23.5t24.5 -9.5h103l51 48l87 -58l-76 -83q-18 -19 -58 -19h-112q-64 0 -106 41.5t-42 104.5z" />
<glyph unicode="d" horiz-adv-x="482" d="M39 138v206q0 35 26 61l40 40q26 26 64 26h140v173h119v-511q0 -67 10 -133h-104l-6 34l-10 -9q-37 -33 -57 -33h-74q-64 0 -106 41.5t-42 104.5zM158 137q0 -14 9.5 -23.5t24.5 -9.5h65l52 46v209h-126l-25 -26v-196z" />
<glyph unicode="e" horiz-adv-x="465" d="M38 138v206q0 35 26 61l40 40q26 26 64 26h111q64 0 106 -41.5t42 -104.5v-134h-270v-54q0 -14 9.5 -23.5t24.5 -9.5h94l51 48l87 -58l-76 -83q-18 -19 -58 -19h-103q-64 0 -106 41.5t-42 104.5zM157 284h151v42q0 14 -9.5 23.5t-24.5 9.5h-92l-25 -26v-49z" />
<glyph unicode="f" horiz-adv-x="318" d="M5 359v104h70v34q0 63 42 105t106 42h90v-112h-85q-15 0 -24.5 -9.5t-9.5 -24.5v-35h106v-104h-106v-359h-119v359h-70z" />
<glyph unicode="g" horiz-adv-x="482" d="M39 156v188q0 35 26 61l40 40q26 26 64 26h92q20 0 57 -33l10 -9l6 34h104q-10 -66 -10 -133v-384q0 -35 -26 -61l-40 -40q-26 -26 -64 -26h-93q-68 0 -108 43l-51 55l88 58l34 -33q11 -11 26 -11h90l25 26v53h-122q-64 0 -106 41.5t-42 104.5zM158 155q0 -14 9.5 -23.5 t24.5 -9.5h117v191l-52 46h-74l-25 -26v-178z" />
<glyph unicode="h" horiz-adv-x="478" d="M44 0v644h119v-207l7 6q34 28 51 28h64q65 0 107 -41.5t42 -104.5v-325h-119v326q0 14 -10 23.5t-24 9.5h-66l-52 -45v-314h-119z" />
<glyph unicode="i" horiz-adv-x="307" d="M24 0v104h74v255h-65v104h184v-359h74v-104h-267zM91 580v12q0 24 17.5 42t40.5 18h15q24 0 42 -18t18 -42v-12q0 -24 -18 -42t-42 -18h-15q-23 0 -40.5 18t-17.5 42z" />
<glyph unicode="j" horiz-adv-x="237" d="M-18 -106l88 96v473h119v-483q0 -36 -27 -61l-106 -104zM62 580v12q0 24 17.5 42t40.5 18h15q24 0 42 -18t18 -42v-12q0 -24 -18 -42t-42 -18h-15q-23 0 -40.5 18t-17.5 42z" />
<glyph unicode="k" horiz-adv-x="462" d="M44 0v644h119v-342h19q4 22 21 43l97 118h140l-138 -180q-13 -17 -13 -35q0 -17 12 -34l157 -214h-140l-115 153q-17 23 -22 45h-18v-198h-119z" />
<glyph unicode="l" horiz-adv-x="218" d="M48 118v526h119v-511q0 -67 10 -133h-119q-10 58 -10 118z" />
<glyph unicode="m" horiz-adv-x="739" d="M44 464h104l6 -34l10 9q36 32 67 32h55q74 0 116 -53l23 21q36 32 67 32h55q64 0 106 -41.5t42 -104.5v-325h-119v326q0 14 -9.5 23.5t-24.5 9.5h-56l-52 -45v-314h-119v330q0 12 -10 20.5t-24 8.5h-56l-52 -45v-314h-119v332q0 66 -10 132z" />
<glyph unicode="n" horiz-adv-x="488" d="M44 464h104l6 -34l10 9q36 32 67 32h65q64 0 106 -41.5t42 -104.5v-325h-119v326q0 14 -9.5 23.5t-24.5 9.5h-66l-52 -45v-314h-119v332q0 66 -10 132z" />
<glyph unicode="o" horiz-adv-x="465" d="M38 138v206q0 35 26 61l40 40q26 26 64 26h111q64 0 106 -41.5t42 -104.5v-206q0 -35 -26 -61l-40 -40q-26 -26 -64 -26h-111q-64 0 -106 41.5t-42 104.5zM157 137q0 -14 9.5 -23.5t24.5 -9.5h92l25 26v196q0 14 -9.5 23.5t-24.5 9.5h-92l-25 -26v-196z" />
<glyph unicode="p" horiz-adv-x="482" d="M44 463h104l6 -34l10 9q37 33 57 33h74q64 0 106 -41.5t42 -104.5v-206q0 -35 -26 -61l-40 -40q-26 -26 -64 -26h-140v-173h-119v511q0 67 -10 133zM173 104h126l25 26v196q0 14 -9.5 23.5t-24.5 9.5h-65l-52 -46v-209z" />
<glyph unicode="q" horiz-adv-x="482" d="M39 138v206q0 35 26 61l40 40q26 26 64 26h92q20 0 57 -33l10 -9l6 34h104q-10 -66 -10 -133v-511h-119v173h-122q-64 0 -106 41.5t-42 104.5zM158 137q0 -14 9.5 -23.5t24.5 -9.5h117v209l-52 46h-74l-25 -26v-196z" />
<glyph unicode="r" horiz-adv-x="333" d="M44 464h104l7 -40l9 9q38 38 72 38h88v-119h-99l-52 -45v-307h-119v332q0 66 -10 132z" />
<glyph unicode="s" horiz-adv-x="441" d="M32 90l88 58l34 -33q11 -11 26 -11h86l25 26v18q0 16 -12 19l-139 32q-38 8 -66 40.5t-28 71.5v33q0 35 26 61l40 40q26 26 64 26h67q68 0 108 -43l51 -55l-88 -58l-34 33q-11 11 -26 11h-64l-25 -26v-9q0 -14 11 -17l147 -33q38 -8 62.5 -39t24.5 -72v-44q0 -35 -26 -61 l-40 -40q-26 -26 -64 -26h-89q-68 0 -108 43z" />
<glyph unicode="t" horiz-adv-x="305" d="M5 359v104h71v127l119 23v-150h98v-104h-98v-214q0 -14 9.5 -23.5t23.5 -9.5h62v-112h-66q-64 0 -106 41.5t-42 104.5v213h-71z" />
<glyph unicode="u" horiz-adv-x="483" d="M44 139v325h119v-326q0 -14 9.5 -23.5t24.5 -9.5h66l52 45v314h119v-332q0 -66 10 -132h-104l-6 34l-10 -9q-36 -32 -67 -32h-65q-64 0 -106 41.5t-42 104.5z" />
<glyph unicode="v" horiz-adv-x="449" d="M8 463h125l91 -292l91 292h126l-157 -463h-120z" />
<glyph unicode="w" horiz-adv-x="676" d="M13 463h125l64 -288l74 288h124l74 -288l64 288h125l-128 -463h-118l-79 285l-79 -285h-118z" />
<glyph unicode="x" horiz-adv-x="472" d="M8 0l142 219q8 13 19 21q-10 9 -19 22l-138 201h140l77 -123q4 -6 7 -8q3 2 7 8l77 123h140l-138 -201q-9 -13 -19 -22q11 -8 19 -21l142 -219h-139l-82 134q-5 8 -7 9q-2 -1 -7 -9l-82 -134h-139z" />
<glyph unicode="y" horiz-adv-x="450" d="M7 463h126l97 -261l89 261h124l-182 -530q-13 -36 -45 -53l-129 -67l-45 100l110 64l20 57z" />
<glyph unicode="z" horiz-adv-x="418" d="M22 0v93q0 42 25 67l188 180q12 12 12 16v3h-217v104h355v-92q0 -42 -25 -67l-187 -181q-12 -12 -12 -16v-3h235v-104h-374z" />
<glyph unicode="{" horiz-adv-x="302" d="M40 281v54q26 6 35 22t9 43v141q0 72 38 101.5t140 28.5v-57q-63 -19 -63 -72v-126q0 -86 -47 -108q47 -26 47 -106v-128q0 -28 14.5 -44.5t48.5 -26.5v-58q-102 -1 -140 29t-38 101v142q0 27 -9 42.5t-35 21.5z" />
<glyph unicode="|" horiz-adv-x="224" d="M55 -166v858h114v-858h-114z" />
<glyph unicode="}" horiz-adv-x="302" d="M40 3q34 10 48.5 26.5t14.5 44.5v128q0 80 47 106q-47 22 -47 108v126q0 53 -63 72v57q102 1 140 -28.5t38 -101.5v-141q0 -27 9 -43t35 -22v-54q-26 -6 -35 -21.5t-9 -42.5v-142q0 -71 -38 -101t-140 -29v58z" />
<glyph unicode="~" horiz-adv-x="556" d="M58 219q49 91 132 91q7 0 14 -1t12.5 -1.5t14 -3.5t13 -4t15 -5.5t14.5 -6t17.5 -7.5t18.5 -8q42 -18 58 -18q39 0 72 62l58 -71q-52 -91 -132 -91q-44 0 -104 29l-16 8l-19 9.5t-17.5 6.5t-19.5 3q-40 0 -73 -63z" />
<glyph unicode="&#xa1;" horiz-adv-x="198" d="M28 386v9q0 27 20 46.5t45 19.5h11q26 0 46 -19.5t20 -46.5v-9q0 -27 -20 -46.5t-46 -19.5h-11q-25 0 -45 19.5t-20 46.5zM37 -6l7 257h109l8 -257v-182h-124v182z" />
<glyph unicode="&#xa2;" horiz-adv-x="460" d="M39 138v206q0 35 26 61l40 40q26 26 64 26h20v68h101v-69q56 -7 90 -42l51 -55l-88 -58l-34 33q-11 11 -26 11h-100l-25 -26v-196q0 -14 9.5 -23.5t24.5 -9.5h103l51 48l87 -58l-76 -83q-18 -19 -58 -19h-9v-81h-101v81h-2q-64 0 -106 41.5t-42 104.5z" />
<glyph unicode="&#xa3;" horiz-adv-x="482" d="M4 257v97h49v160q0 37 26 63l50 50q25 25 64 25h81q69 0 107 -42l75 -85l-93 -67l-67 66q-10 10 -24 10h-65l-30 -31v-149h171v-97h-171v-139h279v-118h-434v84l31 32v141h-49z" />
<glyph unicode="&#xa4;" horiz-adv-x="481" d="M32 336q0 69 40 125l-36 36l43 44l37 -36q52 41 128 41q61 0 121 -41l36 36l44 -44l-36 -36q40 -57 40 -129q0 -61 -40 -119l36 -35l-44 -44l-36 36q-58 -41 -129 -41q-63 0 -120 41l-37 -36l-43 44l36 35q-40 58 -40 123zM93 336q0 -60 43 -104t103 -44q62 0 105 43.5 t43 107.5q0 59 -42 103t-101 44q-65 0 -108 -42.5t-43 -107.5z" />
<glyph unicode="&#xa5;" horiz-adv-x="532" d="M3 644h134l122 -268q3 -7 7 -7t7 7l122 268h134l-147 -312h90v-87h-144v-45h144v-87h-144v-113h-124v113h-144v87h144v45h-144v87h90z" />
<glyph unicode="&#xa6;" horiz-adv-x="224" d="M55 -166v373h114v-373h-114zM55 321v372h114v-372h-114z" />
<glyph unicode="&#xa7;" horiz-adv-x="439" d="M37 229v39q0 34 27 63l62 65l-14 12q-40 33 -40 69v48q0 35 26 61l40 40q26 26 64 26h38q68 0 108 -43l51 -55l-88 -58l-34 33q-11 11 -26 11h-35l-25 -26v-15q0 -8 14 -20l157 -123q39 -31 39 -70v-49q0 -38 -27 -63l-59 -58l11 -9q40 -33 40 -69v-46q0 -35 -26 -61 l-40 -40q-26 -26 -64 -26h-38q-68 0 -108 43l-51 55l88 58l34 -33q11 -11 26 -11h35l25 26v13q0 8 -14 20l-157 123q-39 31 -39 70zM156 251q0 -8 13 -18l54 -44l59 60v11q0 11 -13 22l-49 39l-64 -65v-5z" />
<glyph unicode="&#xa8;" horiz-adv-x="360" d="M35 601v10q0 22 17 39t38 17h11q22 0 39 -17t17 -39v-10q0 -22 -17 -39t-39 -17h-11q-21 0 -38 17t-17 39zM202 601v10q0 22 17 39t38 17h11q21 0 38.5 -17t17.5 -39v-10q0 -22 -17.5 -39t-38.5 -17h-11q-21 0 -38 17t-17 39z" />
<glyph unicode="&#xa9;" horiz-adv-x="679" d="M17 323q0 134 94.5 228.5t228.5 94.5q133 0 227.5 -94.5t94.5 -228.5t-94 -228.5t-228 -94.5t-228.5 94.5t-94.5 228.5zM79 323q0 -107 76.5 -184t184.5 -77q107 0 184 77t77 184t-77 184t-184 77q-108 0 -184.5 -77t-76.5 -184zM209 208v230q0 23 16 39l30 29 q13 15 37 15h69q38 0 67 -29l44 -51l-53 -38l-41 44q-5 6 -18 6h-61l-22 -19v-220l22 -22h76l50 49l52 -37l-58 -65q-15 -15 -36 -15h-91q-23 0 -37 16l-30 30q-16 18 -16 38z" />
<glyph unicode="&#xaa;" horiz-adv-x="284" d="M20 443v34q0 19 18 32l27 19q12 9 35 9h84v29q0 8 -5.5 14t-13.5 6h-61l-30 -29l-51 34l44 46q14 15 37 15h63q39 0 64.5 -25.5t25.5 -65.5v-116q0 -42 7 -82h-64l-5 16l-6 -6q-15 -15 -34 -15h-44q-40 0 -65.5 24t-25.5 61zM92 440q0 -14 22 -14h39l31 30v23h-78 l-14 -11v-28z" />
<glyph unicode="&#xab;" horiz-adv-x="531" d="M33 275v36l153 153h129l-168 -168v-6l171 -171h-128zM213 275v36l153 153h129l-168 -168v-6l171 -171h-128z" />
<glyph unicode="&#xac;" d="M61 372q0 50 2 79t10 55t20 38t37.5 21t56 11t81.5 2t81.5 -2t56 -11t37 -21t20 -38t10 -55t1.5 -79t-1.5 -79t-10 -55.5t-20 -38t-37 -21t-56 -11.5t-81.5 -2t-81.5 2t-56 11t-37.5 21t-20 38t-10 55.5t-2 79.5zM118 323l32 -56l105 82l-19 -131h65l-20 131l105 -82 l32 56l-123 50l123 49l-32 56l-105 -82l19 131h-64l19 -131l-105 81l-32 -56l123 -48z" />
<glyph unicode="&#xad;" horiz-adv-x="252" d="M7 241v105h238v-105h-238z" />
<glyph unicode="&#xae;" horiz-adv-x="679" d="M17 323q0 134 94.5 228.5t228.5 94.5q133 0 227.5 -94.5t94.5 -228.5t-94 -228.5t-228 -94.5t-228.5 94.5t-94.5 228.5zM79 323q0 -107 76.5 -184t184.5 -77q107 0 184 77t77 184t-77 184t-184 77q-108 0 -184.5 -77t-76.5 -184zM221 124v396h154q41 0 68 -26t27 -67v-64 q0 -23 -15 -38l-31 -30q-13 -13 -27 -16l76 -107v-48h-52l-110 155h-22v-155h-68zM289 347h93l22 22v59q0 11 -7.5 17.5t-19.5 6.5h-88v-105z" />
<glyph unicode="&#xaf;" horiz-adv-x="431" d="M53 570v93h325v-93h-325z" />
<glyph unicode="&#xb0;" horiz-adv-x="343" d="M40 528q0 54 38 92.5t93 38.5t93.5 -38.5t38.5 -92.5q0 -55 -38.5 -93.5t-93.5 -38.5t-93 38.5t-38 93.5zM114 528q0 -24 17 -41t40 -17q24 0 41 17t17 41q0 23 -17 40t-41 17q-23 0 -40 -17t-17 -40z" />
<glyph unicode="&#xb1;" horiz-adv-x="551" d="M60 79v106h431v-106h-431zM60 298v106h162v122h106v-122h163v-106h-163v-63h-106v63h-162z" />
<glyph unicode="&#xb2;" horiz-adv-x="312" d="M22 570l45 55q22 27 68 27h52q41 0 68.5 -28t27.5 -69v-56q0 -25 -20 -41l-148 -116v-6h169v-80h-251v94q0 32 22 48l145 110v48q0 16 -15 16h-55l-49 -47z" />
<glyph unicode="&#xb3;" horiz-adv-x="321" d="M22 333l63 44l40 -37q9 -9 18 -9h53l14 16v50q0 15 -13 15h-72v81h65l15 16v47q0 16 -15 16h-52l-48 -47l-62 45l47 55q24 27 67 27h50q41 0 69 -28t28 -69v-56q0 -23 -18 -39l-2 -2q24 -26 24 -61v-58q0 -27 -15 -41l-31 -30q-17 -17 -42 -17h-68q-47 0 -68 25z" />
<glyph unicode="&#xb4;" horiz-adv-x="283" d="M48 505v76l209 88v-104z" />
<glyph unicode="&#xb5;" horiz-adv-x="483" d="M44 -154v618h119v-326q0 -14 9.5 -23.5t24.5 -9.5h66l52 45v314h119v-332q0 -66 10 -132h-104l-6 34l-10 -9q-36 -32 -67 -32h-65q-14 0 -28 3l8 -150h-128z" />
<glyph unicode="&#xb6;" horiz-adv-x="454" d="M30 474q0 81 47.5 126.5t137.5 45.5h199v-788h-95v696h-49v-696h-95v455q-65 2 -105 46.5t-40 114.5z" />
<glyph unicode="&#xb7;" horiz-adv-x="210" d="M34 234v10q0 27 20 46.5t45 19.5h11q26 0 46 -19.5t20 -46.5v-10q0 -27 -20 -46.5t-46 -19.5h-11q-25 0 -45 19.5t-20 46.5z" />
<glyph unicode="&#xb8;" horiz-adv-x="244" d="M49 -169l40 131h105l-68 -131h-77z" />
<glyph unicode="&#xb9;" horiz-adv-x="313" d="M44 597l62 38q19 13 44 13h52v-313h64v-79h-212v79h65v221l-39 -22z" />
<glyph unicode="&#xba;" horiz-adv-x="287" d="M24 447v126q0 21 17 38l25 25q16 16 38 16h67q40 0 65.5 -26t25.5 -66v-125q0 -22 -16 -38l-26 -25q-15 -15 -38 -15h-68q-39 0 -64.5 25.5t-25.5 64.5zM96 446q0 -8 6 -13.5t15 -5.5h58l15 15v118q0 9 -6 15t-16 6h-57l-15 -16v-119z" />
<glyph unicode="&#xbb;" horiz-adv-x="531" d="M33 119l171 171v6l-168 168h129l153 -153v-36l-157 -156h-128zM213 119l171 171v6l-168 168h129l153 -153v-36l-157 -156h-128z" />
<glyph unicode="&#xbc;" horiz-adv-x="702" d="M28 597l62 38q20 13 44 13h52v-313h64v-79h-212v79h65v221l-39 -22zM146 0l353 652h88l-353 -652h-88zM387 80v55l155 257h94v-235h38v-77h-38v-80h-83v80h-166zM490 157h63v105z" />
<glyph unicode="&#xbd;" horiz-adv-x="725" d="M28 597l62 38q20 13 44 13h52v-313h64v-79h-212v79h65v221l-39 -22zM146 0l353 652h88l-353 -652h-88zM435 314l45 55q22 27 68 27h52q41 0 68.5 -28t27.5 -69v-56q0 -25 -20 -41l-148 -116v-6h169v-80h-251v94q0 32 22 48l145 110v48q0 16 -15 16h-55l-49 -47z" />
<glyph unicode="&#xbe;" horiz-adv-x="752" d="M22 333l63 44l40 -37q9 -9 18 -9h53l14 16v50q0 15 -13 15h-72v81h65l15 16v47q0 16 -15 16h-52l-48 -47l-62 45l47 55q24 27 67 27h50q41 0 69 -28t28 -69v-56q0 -23 -18 -39l-2 -2q24 -26 24 -61v-58q0 -27 -15 -41l-31 -30q-17 -17 -42 -17h-68q-47 0 -68 25zM196 0 l353 652h88l-353 -652h-88zM437 80v55l155 257h94v-235h38v-77h-38v-80h-83v80h-166zM540 157h63v105z" />
<glyph unicode="&#xbf;" horiz-adv-x="504" d="M48 24q0 42 30 64l146 108v55h123v-55q0 -55 -29 -76l-147 -109v-52q0 -15 9.5 -25t25.5 -10h99l64 66l87 -75l-73 -75q-34 -34 -83 -34h-98q-66 0 -110 44t-44 110v64zM215 386v9q0 27 20 46.5t46 19.5h11q25 0 45 -19.5t20 -46.5v-9q0 -27 -20 -46.5t-45 -19.5h-11 q-26 0 -46 19.5t-20 46.5z" />
<glyph unicode="&#xc0;" horiz-adv-x="585" d="M8 0l217 644h136l216 -644h-130l-47 144h-215l-46 -144h-131zM188 738v104l209 -88v-76zM224 262h138l-69 214z" />
<glyph unicode="&#xc1;" horiz-adv-x="585" d="M8 0l217 644h136l216 -644h-130l-47 144h-215l-46 -144h-131zM188 678v76l209 88v-104zM224 262h138l-69 214z" />
<glyph unicode="&#xc2;" horiz-adv-x="585" d="M8 0l217 644h136l216 -644h-130l-47 144h-215l-46 -144h-131zM144 682l116 154h64l117 -154h-108l-40 55l-43 -55h-106zM224 262h138l-69 214z" />
<glyph unicode="&#xc3;" horiz-adv-x="585" d="M8 0l217 644h136l216 -644h-130l-47 144h-215l-46 -144h-131zM133 724q18 36 45.5 61t57.5 25q22 0 59 -19q38 -20 51 -20q11 0 20 9.5t26 34.5l60 -44q-18 -37 -46 -61.5t-61 -24.5q-22 0 -56 17q-44 23 -52 23q-16 0 -44 -45zM224 262h138l-69 214z" />
<glyph unicode="&#xc4;" horiz-adv-x="585" d="M8 0l217 644h136l216 -644h-130l-47 144h-215l-46 -144h-131zM148 740v10q0 22 17 39t38 17h11q22 0 39 -17t17 -39v-10q0 -22 -17 -39t-39 -17h-11q-21 0 -38 17t-17 39zM224 262h138l-69 214zM315 740v10q0 22 17 39t38 17h11q21 0 38.5 -17t17.5 -39v-10 q0 -22 -17.5 -39t-38.5 -17h-11q-21 0 -38 17t-17 39z" />
<glyph unicode="&#xc5;" horiz-adv-x="585" d="M8 0l208 619q-33 31 -33 80q0 46 31.5 78t77.5 32q47 0 79 -32t32 -78q0 -48 -34 -80l208 -619h-130l-47 144h-215l-46 -144h-131zM224 262h138l-69 214zM241 699q0 -21 15.5 -36t35.5 -15q21 0 36.5 15t15.5 36q0 20 -16 36t-36 16t-35.5 -16t-15.5 -36z" />
<glyph unicode="&#xc6;" horiz-adv-x="738" d="M10 0l196 644h505v-118h-251v-143h205v-118h-205v-147h251v-118h-375v157h-148l-47 -157h-131zM223 275h113v251h-37z" />
<glyph unicode="&#xc7;" horiz-adv-x="524" d="M47 146v368q0 35 26 63l48 49q24 26 65 26h130q69 0 107 -42l75 -85l-93 -67l-67 66q-10 10 -24 10h-114l-29 -31v-358q0 -15 9 -25t24 -10h131l77 76l95 -66l-92 -103q-9 -10 -28 -17.5t-37 -7.5h-150q-65 0 -109 44t-44 110zM177 -169l40 131h105l-68 -131h-77z" />
<glyph unicode="&#xc8;" horiz-adv-x="469" d="M47 0v644h395v-118h-271v-143h225v-118h-225v-147h271v-118h-395zM140 738v104l209 -88v-76z" />
<glyph unicode="&#xc9;" horiz-adv-x="469" d="M47 0v644h395v-118h-271v-143h225v-118h-225v-147h271v-118h-395zM140 678v76l209 88v-104z" />
<glyph unicode="&#xca;" horiz-adv-x="469" d="M47 0v644h395v-118h-271v-143h225v-118h-225v-147h271v-118h-395zM96 682l116 154h64l117 -154h-108l-40 55l-43 -55h-106z" />
<glyph unicode="&#xcb;" horiz-adv-x="469" d="M47 0v644h395v-118h-271v-143h225v-118h-225v-147h271v-118h-395zM100 740v10q0 22 17 39t38 17h11q22 0 39 -17t17 -39v-10q0 -22 -17 -39t-39 -17h-11q-21 0 -38 17t-17 39zM267 740v10q0 22 17 39t38 17h11q21 0 38.5 -17t17.5 -39v-10q0 -22 -17.5 -39t-38.5 -17h-11 q-21 0 -38 17t-17 39z" />
<glyph unicode="&#xcc;" horiz-adv-x="384" d="M31 0v110h100v424h-100v110h322v-110h-98v-424h98v-110h-322zM88 738v104l209 -88v-76z" />
<glyph unicode="&#xcd;" horiz-adv-x="384" d="M31 0v110h100v424h-100v110h322v-110h-98v-424h98v-110h-322zM88 678v76l209 88v-104z" />
<glyph unicode="&#xce;" horiz-adv-x="384" d="M31 0v110h100v424h-100v110h322v-110h-98v-424h98v-110h-322zM44 682l116 154h64l117 -154h-108l-40 55l-43 -55h-106z" />
<glyph unicode="&#xcf;" horiz-adv-x="384" d="M31 0v110h100v424h-100v110h322v-110h-98v-424h98v-110h-322zM48 740v10q0 22 17 39t38 17h11q22 0 39 -17t17 -39v-10q0 -22 -17 -39t-39 -17h-11q-21 0 -38 17t-17 39zM215 740v10q0 22 17 39t38 17h11q21 0 38.5 -17t17.5 -39v-10q0 -22 -17.5 -39t-38.5 -17h-11 q-21 0 -38 17t-17 39z" />
<glyph unicode="&#xd0;" horiz-adv-x="545" d="M4 281v110h54v253h293q66 0 110 -44t44 -110v-352q0 -36 -27 -63l-49 -49q-26 -26 -64 -26h-307v281h-54zM183 118h167l31 31v342q0 15 -9.5 25t-24.5 10h-164v-135h99v-110h-99v-163z" />
<glyph unicode="&#xd1;" horiz-adv-x="550" d="M47 0v644h121l212 -397v397h123v-644h-121l-212 382v-382h-123zM116 724q18 36 45.5 61t57.5 25q22 0 59 -19q38 -20 51 -20q11 0 20 9.5t26 34.5l60 -44q-18 -37 -46 -61.5t-61 -24.5q-22 0 -56 17q-44 23 -52 23q-16 0 -44 -45z" />
<glyph unicode="&#xd2;" horiz-adv-x="557" d="M47 146v368q0 37 25 62l49 50q24 26 65 26h170q66 0 110 -44t44 -110v-368q0 -36 -27 -63l-48 -49q-26 -26 -65 -26h-170q-66 0 -109.5 44t-43.5 110zM171 145q0 -15 9 -25t24 -10h152l30 31v358q0 15 -9.5 25t-24.5 10h-152l-29 -31v-358zM174 738v104l209 -88v-76z" />
<glyph unicode="&#xd3;" horiz-adv-x="557" d="M47 146v368q0 37 25 62l49 50q24 26 65 26h170q66 0 110 -44t44 -110v-368q0 -36 -27 -63l-48 -49q-26 -26 -65 -26h-170q-66 0 -109.5 44t-43.5 110zM171 145q0 -15 9 -25t24 -10h152l30 31v358q0 15 -9.5 25t-24.5 10h-152l-29 -31v-358zM174 678v76l209 88v-104z" />
<glyph unicode="&#xd4;" horiz-adv-x="557" d="M47 146v368q0 37 25 62l49 50q24 26 65 26h170q66 0 110 -44t44 -110v-368q0 -36 -27 -63l-48 -49q-26 -26 -65 -26h-170q-66 0 -109.5 44t-43.5 110zM130 682l116 154h64l117 -154h-108l-40 55l-43 -55h-106zM171 145q0 -15 9 -25t24 -10h152l30 31v358q0 15 -9.5 25 t-24.5 10h-152l-29 -31v-358z" />
<glyph unicode="&#xd5;" horiz-adv-x="557" d="M47 146v368q0 37 25 62l49 50q24 26 65 26h170q66 0 110 -44t44 -110v-368q0 -36 -27 -63l-48 -49q-26 -26 -65 -26h-170q-66 0 -109.5 44t-43.5 110zM119 724q18 36 45.5 61t57.5 25q22 0 59 -19q38 -20 51 -20q11 0 20 9.5t26 34.5l60 -44q-18 -37 -46 -61.5t-61 -24.5 q-22 0 -56 17q-44 23 -52 23q-16 0 -44 -45zM171 145q0 -15 9 -25t24 -10h152l30 31v358q0 15 -9.5 25t-24.5 10h-152l-29 -31v-358z" />
<glyph unicode="&#xd6;" horiz-adv-x="557" d="M47 146v368q0 37 25 62l49 50q24 26 65 26h170q66 0 110 -44t44 -110v-368q0 -36 -27 -63l-48 -49q-26 -26 -65 -26h-170q-66 0 -109.5 44t-43.5 110zM134 740v10q0 22 17 39t38 17h11q22 0 39 -17t17 -39v-10q0 -22 -17 -39t-39 -17h-11q-21 0 -38 17t-17 39zM171 145 q0 -15 9 -25t24 -10h152l30 31v358q0 15 -9.5 25t-24.5 10h-152l-29 -31v-358zM301 740v10q0 22 17 39t38 17h11q21 0 38.5 -17t17.5 -39v-10q0 -22 -17.5 -39t-38.5 -17h-11q-21 0 -38 17t-17 39z" />
<glyph unicode="&#xd7;" horiz-adv-x="570" d="M60 161l150 149l-150 150l75 75l150 -150l150 151l75 -75l-150 -151l150 -150l-75 -75l-150 151l-150 -150z" />
<glyph unicode="&#xd8;" horiz-adv-x="549" d="M27 18l34 53q-18 33 -18 75v368q0 37 25 62l49 50q24 26 65 26h170q38 0 72 -17l26 41h72v-55l-33 -51q17 -32 17 -72v-368q0 -36 -27 -63l-48 -49q-26 -26 -65 -26h-170q-35 0 -70 15l-29 -45h-70v56zM167 236l191 297q-3 1 -10 1h-152l-29 -31v-267zM194 111q2 -1 5 -1 h153l30 31v263z" />
<glyph unicode="&#xd9;" horiz-adv-x="544" d="M47 146v498h124v-499q0 -15 9 -25t24 -10h139l30 31v503h124v-514q0 -36 -27 -63l-48 -49q-26 -26 -65 -26h-157q-66 0 -109.5 44t-43.5 110zM168 738v104l209 -88v-76z" />
<glyph unicode="&#xda;" horiz-adv-x="544" d="M47 146v498h124v-499q0 -15 9 -25t24 -10h139l30 31v503h124v-514q0 -36 -27 -63l-48 -49q-26 -26 -65 -26h-157q-66 0 -109.5 44t-43.5 110zM168 678v76l209 88v-104z" />
<glyph unicode="&#xdb;" horiz-adv-x="544" d="M47 146v498h124v-499q0 -15 9 -25t24 -10h139l30 31v503h124v-514q0 -36 -27 -63l-48 -49q-26 -26 -65 -26h-157q-66 0 -109.5 44t-43.5 110zM124 682l116 154h64l117 -154h-108l-40 55l-43 -55h-106z" />
<glyph unicode="&#xdc;" horiz-adv-x="544" d="M47 146v498h124v-499q0 -15 9 -25t24 -10h139l30 31v503h124v-514q0 -36 -27 -63l-48 -49q-26 -26 -65 -26h-157q-66 0 -109.5 44t-43.5 110zM128 740v10q0 22 17 39t38 17h11q22 0 39 -17t17 -39v-10q0 -22 -17 -39t-39 -17h-11q-21 0 -38 17t-17 39zM295 740v10 q0 22 17 39t38 17h11q21 0 38.5 -17t17.5 -39v-10q0 -22 -17.5 -39t-38.5 -17h-11q-21 0 -38 17t-17 39z" />
<glyph unicode="&#xdd;" horiz-adv-x="540" d="M7 644h134l122 -268q3 -7 7 -7t7 7l122 268h134l-149 -316q-16 -35 -52 -57v-271h-124v271q-36 22 -52 57zM166 678v76l209 88v-104z" />
<glyph unicode="&#xde;" horiz-adv-x="496" d="M47 0v644h124v-113h146q66 0 110.5 -44t44.5 -110v-120q0 -35 -27 -62l-48 -48q-26 -26 -65 -26h-161v-121h-124zM171 239h147l30 29v110q0 15 -9.5 25t-24.5 10h-143v-174z" />
<glyph unicode="&#xdf;" horiz-adv-x="488" d="M53 0v509q0 34 26 62l48 48q25 25 63 25h66q64 0 105.5 -42t41.5 -105v-58q0 -24 -19 -48l-3 -4q60 -42 60 -117v-151q0 -37 -26 -61l-41 -40q-26 -26 -63 -26h-98v112h84l25 27v140q0 15 -9.5 24.5t-24.5 9.5h-72v86l68 61v46q0 15 -9.5 24.5t-23.5 9.5h-46l-34 -34 v-498h-118z" />
<glyph unicode="&#xe0;" horiz-adv-x="475" d="M32 138v36q0 44 29 64l45 31q24 15 56 15h140v42q0 14 -9.5 23.5t-24.5 9.5h-82l-51 -44l-87 58l76 79q18 19 58 19h91q64 0 106 -41.5t42 -104.5v-192q0 -67 10 -133h-104l-6 34l-10 -9q-37 -33 -57 -33h-74q-64 0 -106 41.5t-42 104.5zM127 565v104l209 -88v-76z M151 137q0 -14 9.5 -23.5t24.5 -9.5h65l52 46v41h-123l-28 -20v-34z" />
<glyph unicode="&#xe1;" horiz-adv-x="475" d="M32 138v36q0 44 29 64l45 31q24 15 56 15h140v42q0 14 -9.5 23.5t-24.5 9.5h-82l-51 -44l-87 58l76 79q18 19 58 19h91q64 0 106 -41.5t42 -104.5v-192q0 -67 10 -133h-104l-6 34l-10 -9q-37 -33 -57 -33h-74q-64 0 -106 41.5t-42 104.5zM127 505v76l209 88v-104z M151 137q0 -14 9.5 -23.5t24.5 -9.5h65l52 46v41h-123l-28 -20v-34z" />
<glyph unicode="&#xe2;" horiz-adv-x="475" d="M32 138v36q0 44 29 64l45 31q24 15 56 15h140v42q0 14 -9.5 23.5t-24.5 9.5h-82l-51 -44l-87 58l76 79q18 19 58 19h91q64 0 106 -41.5t42 -104.5v-192q0 -67 10 -133h-104l-6 34l-10 -9q-37 -33 -57 -33h-74q-64 0 -106 41.5t-42 104.5zM83 509l116 154h64l117 -154 h-108l-40 55l-43 -55h-106zM151 137q0 -14 9.5 -23.5t24.5 -9.5h65l52 46v41h-123l-28 -20v-34z" />
<glyph unicode="&#xe3;" horiz-adv-x="475" d="M32 138v36q0 44 29 64l45 31q24 15 56 15h140v42q0 14 -9.5 23.5t-24.5 9.5h-82l-51 -44l-87 58l76 79q18 19 58 19h91q64 0 106 -41.5t42 -104.5v-192q0 -67 10 -133h-104l-6 34l-10 -9q-37 -33 -57 -33h-74q-64 0 -106 41.5t-42 104.5zM72 576q18 36 45.5 61t57.5 25 q22 0 59 -19q38 -20 51 -20q11 0 20 9.5t26 34.5l60 -44q-18 -37 -46 -61.5t-61 -24.5q-22 0 -56 17q-44 23 -52 23q-16 0 -44 -45zM151 137q0 -14 9.5 -23.5t24.5 -9.5h65l52 46v41h-123l-28 -20v-34z" />
<glyph unicode="&#xe4;" horiz-adv-x="475" d="M32 138v36q0 44 29 64l45 31q24 15 56 15h140v42q0 14 -9.5 23.5t-24.5 9.5h-82l-51 -44l-87 58l76 79q18 19 58 19h91q64 0 106 -41.5t42 -104.5v-192q0 -67 10 -133h-104l-6 34l-10 -9q-37 -33 -57 -33h-74q-64 0 -106 41.5t-42 104.5zM87 597v10q0 22 17 39t38 17h11 q22 0 39 -17t17 -39v-10q0 -22 -17 -39t-39 -17h-11q-21 0 -38 17t-17 39zM151 137q0 -14 9.5 -23.5t24.5 -9.5h65l52 46v41h-123l-28 -20v-34zM254 597v10q0 22 17 39t38 17h11q21 0 38.5 -17t17.5 -39v-10q0 -22 -17.5 -39t-38.5 -17h-11q-21 0 -38 17t-17 39z" />
<glyph unicode="&#xe5;" horiz-adv-x="475" d="M32 138v36q0 44 29 64l45 31q24 15 56 15h140v42q0 14 -9.5 23.5t-24.5 9.5h-82l-51 -44l-87 58l76 79q18 19 58 19h91q64 0 106 -41.5t42 -104.5v-192q0 -67 10 -133h-104l-6 34l-10 -9q-37 -33 -57 -33h-74q-64 0 -106 41.5t-42 104.5zM121 601q0 46 31.5 78t77.5 32 q47 0 79 -32t32 -78t-32 -78t-79 -32q-46 0 -77.5 32t-31.5 78zM151 137q0 -14 9.5 -23.5t24.5 -9.5h65l52 46v41h-123l-28 -20v-34zM179 601q0 -21 15.5 -36t35.5 -15q21 0 36.5 15t15.5 36q0 20 -16 36t-36 16t-35.5 -16t-15.5 -36z" />
<glyph unicode="&#xe6;" horiz-adv-x="714" d="M32 138v36q0 44 29 64l45 31q24 15 56 15h140v42q0 14 -9.5 23.5t-24.5 9.5h-82l-51 -44l-87 58l76 79q18 19 58 19h91q54 0 84 -38l12 12q26 26 64 26h95q64 0 106 -41.5t42 -104.5v-134h-255v-54q0 -14 9.5 -23.5t24.5 -9.5h79l51 48l87 -58l-76 -83q-18 -19 -58 -19 h-87q-68 0 -118 53l-22 -20q-37 -33 -57 -33h-74q-64 0 -106 41.5t-42 104.5zM151 137q0 -14 9.5 -23.5t24.5 -9.5h65l52 46v41h-123l-28 -20v-34zM421 284h136v42q0 14 -9.5 23.5t-24.5 9.5h-77l-25 -26v-49z" />
<glyph unicode="&#xe7;" horiz-adv-x="460" d="M39 138v206q0 35 26 61l40 40q26 26 64 26h103q68 0 108 -43l51 -55l-88 -58l-34 33q-11 11 -26 11h-100l-25 -26v-196q0 -14 9.5 -23.5t24.5 -9.5h103l51 48l87 -58l-76 -83q-18 -19 -58 -19h-112q-64 0 -106 41.5t-42 104.5zM147 -169l40 131h105l-68 -131h-77z" />
<glyph unicode="&#xe8;" horiz-adv-x="465" d="M38 138v206q0 35 26 61l40 40q26 26 64 26h111q64 0 106 -41.5t42 -104.5v-134h-270v-54q0 -14 9.5 -23.5t24.5 -9.5h94l51 48l87 -58l-76 -83q-18 -19 -58 -19h-103q-64 0 -106 41.5t-42 104.5zM128 565v104l209 -88v-76zM157 284h151v42q0 14 -9.5 23.5t-24.5 9.5h-92 l-25 -26v-49z" />
<glyph unicode="&#xe9;" horiz-adv-x="465" d="M38 138v206q0 35 26 61l40 40q26 26 64 26h111q64 0 106 -41.5t42 -104.5v-134h-270v-54q0 -14 9.5 -23.5t24.5 -9.5h94l51 48l87 -58l-76 -83q-18 -19 -58 -19h-103q-64 0 -106 41.5t-42 104.5zM128 505v76l209 88v-104zM157 284h151v42q0 14 -9.5 23.5t-24.5 9.5h-92 l-25 -26v-49z" />
<glyph unicode="&#xea;" horiz-adv-x="465" d="M38 138v206q0 35 26 61l40 40q26 26 64 26h111q64 0 106 -41.5t42 -104.5v-134h-270v-54q0 -14 9.5 -23.5t24.5 -9.5h94l51 48l87 -58l-76 -83q-18 -19 -58 -19h-103q-64 0 -106 41.5t-42 104.5zM84 509l116 154h64l117 -154h-108l-40 55l-43 -55h-106zM157 284h151v42 q0 14 -9.5 23.5t-24.5 9.5h-92l-25 -26v-49z" />
<glyph unicode="&#xeb;" horiz-adv-x="465" d="M38 138v206q0 35 26 61l40 40q26 26 64 26h111q64 0 106 -41.5t42 -104.5v-134h-270v-54q0 -14 9.5 -23.5t24.5 -9.5h94l51 48l87 -58l-76 -83q-18 -19 -58 -19h-103q-64 0 -106 41.5t-42 104.5zM88 601v10q0 22 17 39t38 17h11q22 0 39 -17t17 -39v-10q0 -22 -17 -39 t-39 -17h-11q-21 0 -38 17t-17 39zM157 284h151v42q0 14 -9.5 23.5t-24.5 9.5h-92l-25 -26v-49zM255 601v10q0 22 17 39t38 17h11q21 0 38.5 -17t17.5 -39v-10q0 -22 -17.5 -39t-38.5 -17h-11q-21 0 -38 17t-17 39z" />
<glyph unicode="&#xec;" horiz-adv-x="307" d="M24 0v104h74v255h-65v104h184v-359h74v-104h-267zM53 565v104l209 -88v-76z" />
<glyph unicode="&#xed;" horiz-adv-x="307" d="M24 0v104h74v255h-65v104h184v-359h74v-104h-267zM53 505v76l209 88v-104z" />
<glyph unicode="&#xee;" horiz-adv-x="313" d="M12 509l116 154h64l117 -154h-108l-40 55l-43 -55h-106zM27 0v104h74v255h-65v104h184v-359h74v-104h-267z" />
<glyph unicode="&#xef;" horiz-adv-x="313" d="M16 601v10q0 22 17 39t38 17h11q22 0 39 -17t17 -39v-10q0 -22 -17 -39t-39 -17h-11q-21 0 -38 17t-17 39zM27 0v104h74v255h-65v104h184v-359h74v-104h-267zM183 601v10q0 22 17 39t38 17h11q21 0 38.5 -17t17.5 -39v-10q0 -22 -17.5 -39t-38.5 -17h-11q-21 0 -38 17 t-17 39z" />
<glyph unicode="&#xf0;" horiz-adv-x="467" d="M39 138v198q0 35 26 61l40 40q26 26 64 26h68l-35 55l-55 -32l-40 64l54 32l-67 107h132l32 -49l61 36l40 -66l-59 -34l114 -173q14 -22 14 -80v-204q0 -35 -26 -61l-40 -40q-26 -26 -64 -26h-111q-64 0 -106 41.5t-42 104.5zM158 137q0 -14 9.5 -23.5t24.5 -9.5h92 l25 26v188q0 14 -9.5 23.5t-24.5 9.5h-92l-25 -26v-188z" />
<glyph unicode="&#xf1;" horiz-adv-x="488" d="M44 464h104l6 -34l10 9q36 32 67 32h65q64 0 106 -41.5t42 -104.5v-325h-119v326q0 14 -9.5 23.5t-24.5 9.5h-66l-52 -45v-314h-119v332q0 66 -10 132zM85 576q18 36 45.5 61t57.5 25q22 0 59 -19q38 -20 51 -20q11 0 20 9.5t26 34.5l60 -44q-18 -37 -46 -61.5t-61 -24.5 q-22 0 -56 17q-44 23 -52 23q-16 0 -44 -45z" />
<glyph unicode="&#xf2;" horiz-adv-x="465" d="M38 138v206q0 35 26 61l40 40q26 26 64 26h111q64 0 106 -41.5t42 -104.5v-206q0 -35 -26 -61l-40 -40q-26 -26 -64 -26h-111q-64 0 -106 41.5t-42 104.5zM128 565v104l209 -88v-76zM157 137q0 -14 9.5 -23.5t24.5 -9.5h92l25 26v196q0 14 -9.5 23.5t-24.5 9.5h-92 l-25 -26v-196z" />
<glyph unicode="&#xf3;" horiz-adv-x="465" d="M38 138v206q0 35 26 61l40 40q26 26 64 26h111q64 0 106 -41.5t42 -104.5v-206q0 -35 -26 -61l-40 -40q-26 -26 -64 -26h-111q-64 0 -106 41.5t-42 104.5zM128 505v76l209 88v-104zM157 137q0 -14 9.5 -23.5t24.5 -9.5h92l25 26v196q0 14 -9.5 23.5t-24.5 9.5h-92 l-25 -26v-196z" />
<glyph unicode="&#xf4;" horiz-adv-x="465" d="M38 138v206q0 35 26 61l40 40q26 26 64 26h111q64 0 106 -41.5t42 -104.5v-206q0 -35 -26 -61l-40 -40q-26 -26 -64 -26h-111q-64 0 -106 41.5t-42 104.5zM84 509l116 154h64l117 -154h-108l-40 55l-43 -55h-106zM157 137q0 -14 9.5 -23.5t24.5 -9.5h92l25 26v196 q0 14 -9.5 23.5t-24.5 9.5h-92l-25 -26v-196z" />
<glyph unicode="&#xf5;" horiz-adv-x="465" d="M38 138v206q0 35 26 61l40 40q26 26 64 26h111q64 0 106 -41.5t42 -104.5v-206q0 -35 -26 -61l-40 -40q-26 -26 -64 -26h-111q-64 0 -106 41.5t-42 104.5zM73 576q18 36 45.5 61t57.5 25q22 0 59 -19q38 -20 51 -20q11 0 20 9.5t26 34.5l60 -44q-18 -37 -46 -61.5 t-61 -24.5q-22 0 -56 17q-44 23 -52 23q-16 0 -44 -45zM157 137q0 -14 9.5 -23.5t24.5 -9.5h92l25 26v196q0 14 -9.5 23.5t-24.5 9.5h-92l-25 -26v-196z" />
<glyph unicode="&#xf6;" horiz-adv-x="465" d="M38 138v206q0 35 26 61l40 40q26 26 64 26h111q64 0 106 -41.5t42 -104.5v-206q0 -35 -26 -61l-40 -40q-26 -26 -64 -26h-111q-64 0 -106 41.5t-42 104.5zM88 601v10q0 22 17 39t38 17h11q22 0 39 -17t17 -39v-10q0 -22 -17 -39t-39 -17h-11q-21 0 -38 17t-17 39z M157 137q0 -14 9.5 -23.5t24.5 -9.5h92l25 26v196q0 14 -9.5 23.5t-24.5 9.5h-92l-25 -26v-196zM255 601v10q0 22 17 39t38 17h11q21 0 38.5 -17t17.5 -39v-10q0 -22 -17.5 -39t-38.5 -17h-11q-21 0 -38 17t-17 39z" />
<glyph unicode="&#xf7;" horiz-adv-x="551" d="M60 258v106h431v-106h-431zM211 155v9q0 23 17.5 41t40.5 18h11q22 0 40.5 -18t18.5 -41v-9q0 -23 -18.5 -41.5t-40.5 -18.5h-11q-22 0 -40 18.5t-18 41.5zM211 458v9q0 23 17.5 41t40.5 18h11q22 0 40.5 -18t18.5 -41v-9q0 -23 -18.5 -41.5t-40.5 -18.5h-11 q-22 0 -40 18.5t-18 41.5z" />
<glyph unicode="&#xf8;" horiz-adv-x="486" d="M29 19l36 48q-17 31 -17 71v206q0 35 26 61l40 40q26 26 64 26h111q35 0 68 -15l34 45h66v-54l-38 -50q18 -31 18 -72v-206q0 -35 -26 -61l-40 -40q-26 -26 -64 -26h-111q-37 0 -71 16l-34 -46h-62v57zM167 203l117 156h-92l-25 -26v-130zM198 104h3h92l25 26v133z" />
<glyph unicode="&#xf9;" horiz-adv-x="483" d="M44 139v325h119v-326q0 -14 9.5 -23.5t24.5 -9.5h66l52 45v314h119v-332q0 -66 10 -132h-104l-6 34l-10 -9q-36 -32 -67 -32h-65q-64 0 -106 41.5t-42 104.5zM140 565v104l209 -88v-76z" />
<glyph unicode="&#xfa;" horiz-adv-x="483" d="M44 139v325h119v-326q0 -14 9.5 -23.5t24.5 -9.5h66l52 45v314h119v-332q0 -66 10 -132h-104l-6 34l-10 -9q-36 -32 -67 -32h-65q-64 0 -106 41.5t-42 104.5zM140 505v76l209 88v-104z" />
<glyph unicode="&#xfb;" horiz-adv-x="483" d="M44 139v325h119v-326q0 -14 9.5 -23.5t24.5 -9.5h66l52 45v314h119v-332q0 -66 10 -132h-104l-6 34l-10 -9q-36 -32 -67 -32h-65q-64 0 -106 41.5t-42 104.5zM96 509l116 154h64l117 -154h-108l-40 55l-43 -55h-106z" />
<glyph unicode="&#xfc;" horiz-adv-x="483" d="M44 139v325h119v-326q0 -14 9.5 -23.5t24.5 -9.5h66l52 45v314h119v-332q0 -66 10 -132h-104l-6 34l-10 -9q-36 -32 -67 -32h-65q-64 0 -106 41.5t-42 104.5zM100 601v10q0 22 17 39t38 17h11q22 0 39 -17t17 -39v-10q0 -22 -17 -39t-39 -17h-11q-21 0 -38 17t-17 39z M267 601v10q0 22 17 39t38 17h11q21 0 38.5 -17t17.5 -39v-10q0 -22 -17.5 -39t-38.5 -17h-11q-21 0 -38 17t-17 39z" />
<glyph unicode="&#xfd;" horiz-adv-x="450" d="M7 463h126l97 -261l89 261h124l-182 -530q-13 -36 -45 -53l-129 -67l-45 100l110 64l20 57zM121 505v76l209 88v-104z" />
<glyph unicode="&#xfe;" horiz-adv-x="473" d="M44 -181v825h119v-198q29 25 48 25h74q64 0 106 -41.5t42 -104.5v-206q0 -35 -26 -61l-40 -40q-26 -26 -64 -26h-140v-173h-119zM163 104h126l25 26v196q0 14 -9.5 23.5t-24.5 9.5h-65l-52 -46v-209z" />
<glyph unicode="&#xff;" horiz-adv-x="450" d="M7 463h126l97 -261l89 261h124l-182 -530q-13 -36 -45 -53l-129 -67l-45 100l110 64l20 57zM81 601v10q0 22 17 39t38 17h11q22 0 39 -17t17 -39v-10q0 -22 -17 -39t-39 -17h-11q-21 0 -38 17t-17 39zM248 601v10q0 22 17 39t38 17h11q21 0 38.5 -17t17.5 -39v-10 q0 -22 -17.5 -39t-38.5 -17h-11q-21 0 -38 17t-17 39z" />
<glyph unicode="&#x131;" horiz-adv-x="307" d="M24 0v104h74v255h-65v104h184v-359h74v-104h-267z" />
<glyph unicode="&#x141;" horiz-adv-x="450" d="M-8 210v113l63 33v288h124v-221l122 65v-114l-122 -65v-191h254v-118h-378v243z" />
<glyph unicode="&#x142;" horiz-adv-x="300" d="M20 223v110l71 38v273h119v-210l70 38v-110l-70 -38v-191q0 -67 10 -133h-119q-10 58 -10 118v143z" />
<glyph unicode="&#x152;" horiz-adv-x="760" d="M40 154v352q0 37 25 62l49 50q24 26 65 26h554v-118h-251v-143h205v-118h-205v-147h251v-118h-540q-66 0 -109.5 44t-43.5 110zM164 153q0 -15 9 -25t24 -10h161v408h-165l-29 -31v-342z" />
<glyph unicode="&#x153;" horiz-adv-x="707" d="M39 138v206q0 35 26 61l40 40q26 26 64 26h87q56 0 98 -34l8 8q26 26 64 26h95q64 0 106 -41.5t42 -104.5v-134h-255v-54q0 -14 9.5 -23.5t24.5 -9.5h79l51 48l87 -58l-76 -83q-18 -19 -58 -19h-87q-59 0 -98 34l-9 -8q-26 -26 -63 -26h-87q-64 0 -106 41.5t-42 104.5z M158 137q0 -14 9.5 -23.5t24.5 -9.5h78l25 26v196q0 14 -9.5 23.5t-24.5 9.5h-78l-25 -26v-196zM414 284h136v42q0 14 -9.5 23.5t-24.5 9.5h-77l-25 -26v-49z" />
<glyph unicode="&#x160;" horiz-adv-x="531" d="M26 119l93 67l67 -66q10 -10 24 -10h130l29 31v80q0 28 -21 33l-183 39q-51 11 -83 52.5t-32 97.5v71q0 35 26 63l48 49q24 26 65 26h130q69 0 107 -42l75 -85l-93 -67l-67 66q-10 10 -24 10h-114l-29 -31v-63q0 -28 22 -33l182 -40q51 -11 83 -52.5t32 -96.5v-88 q0 -35 -26 -63l-48 -49q-24 -26 -65 -26h-146q-69 0 -107 42zM115 836h108l42 -55l42 55h105l-116 -154h-64z" />
<glyph unicode="&#x161;" horiz-adv-x="441" d="M32 90l88 58l34 -33q11 -11 26 -11h86l25 26v18q0 16 -12 19l-139 32q-38 8 -66 40.5t-28 71.5v33q0 35 26 61l40 40q26 26 64 26h67q68 0 108 -43l51 -55l-88 -58l-34 33q-11 11 -26 11h-64l-25 -26v-9q0 -14 11 -17l147 -33q38 -8 62.5 -39t24.5 -72v-44q0 -35 -26 -61 l-40 -40q-26 -26 -64 -26h-89q-68 0 -108 43zM73 663h108l42 -55l42 55h105l-116 -154h-64z" />
<glyph unicode="&#x178;" horiz-adv-x="540" d="M7 644h134l122 -268q3 -7 7 -7t7 7l122 268h134l-149 -316q-16 -35 -52 -57v-271h-124v271q-36 22 -52 57zM126 740v10q0 22 17 39t38 17h11q22 0 39 -17t17 -39v-10q0 -22 -17 -39t-39 -17h-11q-21 0 -38 17t-17 39zM293 740v10q0 22 17 39t38 17h11q21 0 38.5 -17 t17.5 -39v-10q0 -22 -17.5 -39t-38.5 -17h-11q-21 0 -38 17t-17 39z" />
<glyph unicode="&#x17d;" horiz-adv-x="477" d="M24 0v109q0 34 19 58l264 342q4 5 4 14v3h-266v118h408v-108q0 -36 -19 -59l-266 -341q-4 -5 -4 -14v-4h289v-118h-429zM100 836h108l42 -55l42 55h105l-116 -154h-64z" />
<glyph unicode="&#x17e;" horiz-adv-x="418" d="M22 0v93q0 42 25 67l188 180q12 12 12 16v3h-217v104h355v-92q0 -42 -25 -67l-187 -181q-12 -12 -12 -16v-3h235v-104h-374zM61 663h108l42 -55l42 55h105l-116 -154h-64z" />
<glyph unicode="&#x192;" horiz-adv-x="486" d="M64 -144l8 112l65 -10l22 18l28 317h-54l9 104h55l12 130q3 31 32 60l35 34q13 12 33 19.5t37 5.5l76 -11l-10 -112l-65 10l-20 -17l-11 -119h70l-9 -104h-70l-32 -330q-3 -34 -30 -59l-37 -34q-31 -29 -67 -24z" />
<glyph unicode="&#x2c6;" horiz-adv-x="391" d="M47 509l116 154h64l117 -154h-108l-40 55l-43 -55h-106z" />
<glyph unicode="&#x2c7;" horiz-adv-x="391" d="M47 663h108l42 -55l42 55h105l-116 -154h-64z" />
<glyph unicode="&#x2d8;" horiz-adv-x="420" d="M52 663h77q24 -77 81 -77t81 77h77q-13 -67 -53.5 -114t-104.5 -47t-104.5 47t-53.5 114z" />
<glyph unicode="&#x2d9;" horiz-adv-x="212" d="M46 593v10q0 21 16.5 37.5t37.5 16.5h10q20 0 37 -16.5t17 -37.5v-10q0 -21 -17 -37.5t-37 -16.5h-10q-21 0 -37.5 16.5t-16.5 37.5z" />
<glyph unicode="&#x2da;" horiz-adv-x="300" d="M40 601q0 46 31.5 78t77.5 32q47 0 79 -32t32 -78t-32 -78t-79 -32q-46 0 -77.5 32t-31.5 78zM98 601q0 -21 15.5 -36t35.5 -15q21 0 36.5 15t15.5 36q0 20 -16 36t-36 16t-35.5 -16t-15.5 -36z" />
<glyph unicode="&#x2db;" horiz-adv-x="276" d="M52 -104q0 33 27 60t67 36h86q-47 -13 -71.5 -28.5t-24.5 -40.5q0 -13 8.5 -21t23.5 -8q19 0 60 14v-75q-48 -18 -80 -18q-42 0 -69 22t-27 59z" />
<glyph unicode="&#x2dc;" horiz-adv-x="424" d="M53 576q18 36 45.5 61t57.5 25q22 0 59 -19q38 -20 51 -20q11 0 20 9.5t26 34.5l60 -44q-18 -37 -46 -61.5t-61 -24.5q-22 0 -56 17q-44 23 -52 23q-16 0 -44 -45z" />
<glyph unicode="&#x2dd;" horiz-adv-x="448" d="M49 509l74 154h123l-114 -154h-83zM204 509l74 154h122l-114 -154h-82z" />
<glyph unicode="&#x3c0;" d="M61 372q0 50 2 79t10 55t20 38t37.5 21t56 11t81.5 2t81.5 -2t56 -11t37 -21t20 -38t10 -55t1.5 -79t-1.5 -79t-10 -55.5t-20 -38t-37 -21t-56 -11.5t-81.5 -2t-81.5 2t-56 11t-37.5 21t-20 38t-10 55.5t-2 79.5zM118 323l32 -56l105 82l-19 -131h65l-20 131l105 -82 l32 56l-123 50l123 49l-32 56l-105 -82l19 131h-64l19 -131l-105 81l-32 -56l123 -48z" />
<glyph unicode="&#x2000;" horiz-adv-x="421" />
<glyph unicode="&#x2001;" horiz-adv-x="842" />
<glyph unicode="&#x2002;" horiz-adv-x="421" />
<glyph unicode="&#x2003;" horiz-adv-x="842" />
<glyph unicode="&#x2004;" horiz-adv-x="280" />
<glyph unicode="&#x2005;" horiz-adv-x="210" />
<glyph unicode="&#x2006;" horiz-adv-x="140" />
<glyph unicode="&#x2007;" horiz-adv-x="140" />
<glyph unicode="&#x2008;" horiz-adv-x="105" />
<glyph unicode="&#x2009;" horiz-adv-x="168" />
<glyph unicode="&#x200a;" horiz-adv-x="46" />
<glyph unicode="&#x2010;" horiz-adv-x="252" d="M7 241v105h238v-105h-238z" />
<glyph unicode="&#x2011;" horiz-adv-x="252" d="M7 241v105h238v-105h-238z" />
<glyph unicode="&#x2012;" horiz-adv-x="252" d="M7 241v105h238v-105h-238z" />
<glyph unicode="&#x2013;" horiz-adv-x="406" d="M7 241v105h392v-105h-392z" />
<glyph unicode="&#x2014;" horiz-adv-x="681" d="M7 241v105h666v-105h-666z" />
<glyph unicode="&#x2018;" horiz-adv-x="197" d="M36 484v9q0 28 12 53l46 100h70l-38 -94q46 -17 46 -59v-9q0 -26 -19 -46t-43 -20h-13q-25 0 -43 19.5t-18 46.5z" />
<glyph unicode="&#x2019;" horiz-adv-x="197" d="M25 571v9q0 26 19 46t43 20h13q25 0 43 -19.5t18 -46.5v-9q0 -28 -12 -53l-46 -100h-70l38 94q-46 17 -46 59z" />
<glyph unicode="&#x201a;" horiz-adv-x="197" d="M25 63v9q0 26 19 46t43 20h13q25 0 43 -19.5t18 -46.5v-9q0 -28 -12 -53l-46 -100h-70l38 94q-46 17 -46 59z" />
<glyph unicode="&#x201c;" horiz-adv-x="363" d="M36 484v9q0 28 12 53l46 100h70l-38 -94q46 -17 46 -59v-9q0 -26 -19 -46t-43 -20h-13q-25 0 -43 19.5t-18 46.5zM201 484v9q0 28 12 53l46 100h70l-38 -94q46 -17 46 -59v-9q0 -26 -19 -46t-43 -20h-13q-25 0 -43 19.5t-18 46.5z" />
<glyph unicode="&#x201d;" horiz-adv-x="362" d="M25 571v9q0 26 19 46t43 20h13q25 0 43 -19.5t18 -46.5v-9q0 -28 -12 -53l-46 -100h-70l38 94q-46 17 -46 59zM190 571v9q0 26 19 46t43 20h13q25 0 43 -19.5t18 -46.5v-9q0 -28 -12 -53l-46 -100h-70l38 94q-46 17 -46 59z" />
<glyph unicode="&#x201e;" horiz-adv-x="362" d="M25 63v9q0 26 19 46t43 20h13q25 0 43 -19.5t18 -46.5v-9q0 -28 -12 -53l-46 -100h-70l38 94q-46 17 -46 59zM190 63v9q0 26 19 46t43 20h13q25 0 43 -19.5t18 -46.5v-9q0 -28 -12 -53l-46 -100h-70l38 94q-46 17 -46 59z" />
<glyph unicode="&#x2020;" horiz-adv-x="466" d="M45 361v120h87l38 -2v167h63h63v-167l38 2h87v-120h-87l-38 2v-270l-10 -216h-106l-10 216v270l-38 -2h-87z" />
<glyph unicode="&#x2021;" horiz-adv-x="466" d="M45 42v120h87l38 -2v41l10 61l-10 60v41l-38 -2h-87v120h87l38 -2v167h126v-167l38 2h87v-120h-87l-38 2v-41l-10 -60l10 -61v-41l38 2h87v-120h-87l-38 2v-167h-126v167l-38 -2h-87z" />
<glyph unicode="&#x2022;" horiz-adv-x="427" d="M53 308v28q0 59 43 101.5t100 42.5h32q56 0 100.5 -43t44.5 -101v-28q0 -58 -44.5 -101t-100.5 -43h-32q-57 0 -100 42.5t-43 101.5z" />
<glyph unicode="&#x2026;" horiz-adv-x="684" d="M34 63v9q0 27 20 46.5t45 19.5h11q26 0 46 -19.5t20 -46.5v-9q0 -27 -20 -46.5t-46 -19.5h-11q-25 0 -45 19.5t-20 46.5zM271 63v9q0 27 20 46.5t45 19.5h11q26 0 46 -19.5t20 -46.5v-9q0 -27 -20 -46.5t-46 -19.5h-11q-25 0 -45 19.5t-20 46.5zM508 63v9q0 27 19.5 46.5 t45.5 19.5h11q25 0 45.5 -20t20.5 -46v-9q0 -27 -20.5 -46.5t-45.5 -19.5h-11q-26 0 -45.5 19.5t-19.5 46.5z" />
<glyph unicode="&#x202f;" horiz-adv-x="168" />
<glyph unicode="&#x2030;" horiz-adv-x="904" d="M32 437v129q0 30 16 44l26 24q18 18 43 18h69q25 0 43 -16l27 -25q17 -15 17 -44v-129q0 -30 -16 -44l-26 -24q-18 -18 -43 -18h-69q-25 0 -43 16l-27 25q-17 15 -17 44zM86 0l353 652h93l-353 -652h-93zM124 446l7 -7h42l8 7v112l-7 7h-42l-8 -7v-112zM344 85v129 q0 30 16 44l26 24q18 18 43 18h69q25 0 43 -16l27 -25q17 -15 17 -44v-129q0 -30 -16 -44l-26 -24q-18 -18 -43 -18h-69q-25 0 -43 16l-27 25q-17 15 -17 44zM436 94l7 -7h42l8 7v112l-7 7h-42l-8 -7v-112zM631 85v129q0 30 16 44l26 24q18 18 43 18h69q25 0 43 -16l27 -25 q17 -15 17 -44v-129q0 -30 -16 -44l-26 -24q-18 -18 -43 -18h-69q-25 0 -43 16l-27 25q-17 15 -17 44zM723 94l7 -7h42l8 7v112l-7 7h-42l-8 -7v-112z" />
<glyph unicode="&#x2039;" horiz-adv-x="351" d="M33 275v36l153 153h129l-168 -168v-6l171 -171h-128z" />
<glyph unicode="&#x203a;" horiz-adv-x="351" d="M33 119l171 171v6l-168 168h129l153 -153v-36l-157 -156h-128z" />
<glyph unicode="&#x2044;" horiz-adv-x="94" d="M-176 0l353 652h93l-353 -652h-93z" />
<glyph unicode="&#x205f;" horiz-adv-x="210" />
<glyph unicode="&#x20ac;" horiz-adv-x="533" d="M4 216v87h63v37h-63v87h63v87q0 35 26 63l48 49q24 26 65 26h112q69 0 107 -42l75 -85l-93 -67l-67 66q-10 10 -24 10h-96l-29 -31v-76h171l-28 -87h-143v-37h131l-28 -87h-103v-71q0 -15 9 -25t24 -10h113l77 76l95 -66l-92 -103q-9 -10 -28 -17.5t-37 -7.5h-132 q-65 0 -109 44t-44 110v70h-63z" />
<glyph unicode="&#x2117;" horiz-adv-x="679" d="M17 323q0 134 94.5 228.5t228.5 94.5q133 0 227.5 -94.5t94.5 -228.5t-94 -228.5t-228 -94.5t-228.5 94.5t-94.5 228.5zM79 323q0 -107 76.5 -184t184.5 -77q107 0 184 77t77 184t-77 184t-184 77q-108 0 -184.5 -77t-76.5 -184zM230 124v396h155q41 0 67.5 -26t26.5 -67 v-74q0 -18 -15 -35l-29 -31q-14 -16 -38 -16h-99v-147h-68zM298 339h94l20 20v69q0 24 -25 24h-89v-113z" />
<glyph unicode="&#x2122;" horiz-adv-x="617" d="M26 576v70h234v-70h-81v-280h-72v280h-81zM297 296v350h65l65 -188l64 188h64v-350h-67l-1 149l-28 -78h-66l-29 80v-151h-67z" />
<glyph unicode="&#x2126;" d="M61 372q0 50 2 79t10 55t20 38t37.5 21t56 11t81.5 2t81.5 -2t56 -11t37 -21t20 -38t10 -55t1.5 -79t-1.5 -79t-10 -55.5t-20 -38t-37 -21t-56 -11.5t-81.5 -2t-81.5 2t-56 11t-37.5 21t-20 38t-10 55.5t-2 79.5zM118 323l32 -56l105 82l-19 -131h65l-20 131l105 -82 l32 56l-123 50l123 49l-32 56l-105 -82l19 131h-64l19 -131l-105 81l-32 -56l123 -48z" />
<glyph unicode="&#x2202;" d="M61 372q0 50 2 79t10 55t20 38t37.5 21t56 11t81.5 2t81.5 -2t56 -11t37 -21t20 -38t10 -55t1.5 -79t-1.5 -79t-10 -55.5t-20 -38t-37 -21t-56 -11.5t-81.5 -2t-81.5 2t-56 11t-37.5 21t-20 38t-10 55.5t-2 79.5zM118 323l32 -56l105 82l-19 -131h65l-20 131l105 -82 l32 56l-123 50l123 49l-32 56l-105 -82l19 131h-64l19 -131l-105 81l-32 -56l123 -48z" />
<glyph unicode="&#x2206;" d="M61 372q0 50 2 79t10 55t20 38t37.5 21t56 11t81.5 2t81.5 -2t56 -11t37 -21t20 -38t10 -55t1.5 -79t-1.5 -79t-10 -55.5t-20 -38t-37 -21t-56 -11.5t-81.5 -2t-81.5 2t-56 11t-37.5 21t-20 38t-10 55.5t-2 79.5zM118 323l32 -56l105 82l-19 -131h65l-20 131l105 -82 l32 56l-123 50l123 49l-32 56l-105 -82l19 131h-64l19 -131l-105 81l-32 -56l123 -48z" />
<glyph unicode="&#x220f;" d="M61 372q0 50 2 79t10 55t20 38t37.5 21t56 11t81.5 2t81.5 -2t56 -11t37 -21t20 -38t10 -55t1.5 -79t-1.5 -79t-10 -55.5t-20 -38t-37 -21t-56 -11.5t-81.5 -2t-81.5 2t-56 11t-37.5 21t-20 38t-10 55.5t-2 79.5zM118 323l32 -56l105 82l-19 -131h65l-20 131l105 -82 l32 56l-123 50l123 49l-32 56l-105 -82l19 131h-64l19 -131l-105 81l-32 -56l123 -48z" />
<glyph unicode="&#x2211;" d="M61 372q0 50 2 79t10 55t20 38t37.5 21t56 11t81.5 2t81.5 -2t56 -11t37 -21t20 -38t10 -55t1.5 -79t-1.5 -79t-10 -55.5t-20 -38t-37 -21t-56 -11.5t-81.5 -2t-81.5 2t-56 11t-37.5 21t-20 38t-10 55.5t-2 79.5zM118 323l32 -56l105 82l-19 -131h65l-20 131l105 -82 l32 56l-123 50l123 49l-32 56l-105 -82l19 131h-64l19 -131l-105 81l-32 -56l123 -48z" />
<glyph unicode="&#x2212;" horiz-adv-x="551" d="M60 258v106h431v-106h-431z" />
<glyph unicode="&#x221a;" d="M61 372q0 50 2 79t10 55t20 38t37.5 21t56 11t81.5 2t81.5 -2t56 -11t37 -21t20 -38t10 -55t1.5 -79t-1.5 -79t-10 -55.5t-20 -38t-37 -21t-56 -11.5t-81.5 -2t-81.5 2t-56 11t-37.5 21t-20 38t-10 55.5t-2 79.5zM118 323l32 -56l105 82l-19 -131h65l-20 131l105 -82 l32 56l-123 50l123 49l-32 56l-105 -82l19 131h-64l19 -131l-105 81l-32 -56l123 -48z" />
<glyph unicode="&#x221e;" d="M61 372q0 50 2 79t10 55t20 38t37.5 21t56 11t81.5 2t81.5 -2t56 -11t37 -21t20 -38t10 -55t1.5 -79t-1.5 -79t-10 -55.5t-20 -38t-37 -21t-56 -11.5t-81.5 -2t-81.5 2t-56 11t-37.5 21t-20 38t-10 55.5t-2 79.5zM118 323l32 -56l105 82l-19 -131h65l-20 131l105 -82 l32 56l-123 50l123 49l-32 56l-105 -82l19 131h-64l19 -131l-105 81l-32 -56l123 -48z" />
<glyph unicode="&#x222b;" d="M61 372q0 50 2 79t10 55t20 38t37.5 21t56 11t81.5 2t81.5 -2t56 -11t37 -21t20 -38t10 -55t1.5 -79t-1.5 -79t-10 -55.5t-20 -38t-37 -21t-56 -11.5t-81.5 -2t-81.5 2t-56 11t-37.5 21t-20 38t-10 55.5t-2 79.5zM118 323l32 -56l105 82l-19 -131h65l-20 131l105 -82 l32 56l-123 50l123 49l-32 56l-105 -82l19 131h-64l19 -131l-105 81l-32 -56l123 -48z" />
<glyph unicode="&#x2248;" d="M61 372q0 50 2 79t10 55t20 38t37.5 21t56 11t81.5 2t81.5 -2t56 -11t37 -21t20 -38t10 -55t1.5 -79t-1.5 -79t-10 -55.5t-20 -38t-37 -21t-56 -11.5t-81.5 -2t-81.5 2t-56 11t-37.5 21t-20 38t-10 55.5t-2 79.5zM118 323l32 -56l105 82l-19 -131h65l-20 131l105 -82 l32 56l-123 50l123 49l-32 56l-105 -82l19 131h-64l19 -131l-105 81l-32 -56l123 -48z" />
<glyph unicode="&#x2260;" d="M61 372q0 50 2 79t10 55t20 38t37.5 21t56 11t81.5 2t81.5 -2t56 -11t37 -21t20 -38t10 -55t1.5 -79t-1.5 -79t-10 -55.5t-20 -38t-37 -21t-56 -11.5t-81.5 -2t-81.5 2t-56 11t-37.5 21t-20 38t-10 55.5t-2 79.5zM118 323l32 -56l105 82l-19 -131h65l-20 131l105 -82 l32 56l-123 50l123 49l-32 56l-105 -82l19 131h-64l19 -131l-105 81l-32 -56l123 -48z" />
<glyph unicode="&#x2264;" horiz-adv-x="551" d="M60 79v106h431v-106h-431zM60 335v66l431 133v-106l-213 -60l213 -60v-106z" />
<glyph unicode="&#x2265;" horiz-adv-x="551" d="M60 79v106h431v-106h-431zM60 202v106l213 60l-213 60v106l431 -133v-66z" />
<glyph unicode="&#x25ca;" d="M61 372q0 50 2 79t10 55t20 38t37.5 21t56 11t81.5 2t81.5 -2t56 -11t37 -21t20 -38t10 -55t1.5 -79t-1.5 -79t-10 -55.5t-20 -38t-37 -21t-56 -11.5t-81.5 -2t-81.5 2t-56 11t-37.5 21t-20 38t-10 55.5t-2 79.5zM118 323l32 -56l105 82l-19 -131h65l-20 131l105 -82 l32 56l-123 50l123 49l-32 56l-105 -82l19 131h-64l19 -131l-105 81l-32 -56l123 -48z" />
<glyph unicode="&#x25fc;" horiz-adv-x="465" d="M0 0v465h465v-465h-465z" />
<glyph unicode="&#xf8ff;" d="M61 372q0 50 2 79t10 55t20 38t37.5 21t56 11t81.5 2t81.5 -2t56 -11t37 -21t20 -38t10 -55t1.5 -79t-1.5 -79t-10 -55.5t-20 -38t-37 -21t-56 -11.5t-81.5 -2t-81.5 2t-56 11t-37.5 21t-20 38t-10 55.5t-2 79.5zM118 323l32 -56l105 82l-19 -131h65l-20 131l105 -82 l32 56l-123 50l123 49l-32 56l-105 -82l19 131h-64l19 -131l-105 81l-32 -56l123 -48z" />
<glyph horiz-adv-x="612" d="M60 237v44l164 166q22 24 64 24h49v-69l-93 -88h308v-110h-308l93 -88v-69h-49q-42 0 -64 24z" />
<glyph horiz-adv-x="544" d="M60 228v49q0 41 24 64l166 164h44l166 -164q24 -23 24 -64v-49h-69l-88 93v-308h-110v308l-88 -93h-69z" />
<glyph horiz-adv-x="612" d="M60 204v110h308l-93 88v69h49q42 0 64 -24l164 -166v-44l-164 -166q-22 -24 -64 -24h-49v69l93 88h-308z" />
<glyph horiz-adv-x="544" d="M60 241v49h69l88 -93v308h110v-308l88 93h69v-49q0 -41 -24 -64l-166 -164h-44l-166 164q-24 23 -24 64z" />
<glyph horiz-adv-x="525" d="M61 195l1 233l32 32l233 1q34 0 62 -28l35 -35l-49 -49l-128 4l218 -218l-78 -78l-218 218l4 -128l-49 -49l-35 35q-28 28 -28 62z" />
<glyph horiz-adv-x="525" d="M60 135l218 218l-128 -4l-49 49l35 35q28 28 62 28l233 -1l32 -32l1 -233q0 -34 -28 -62l-35 -35l-49 49l4 128l-218 -218z" />
<glyph horiz-adv-x="525" d="M60 394l78 78l218 -218l-4 128l49 49l35 -35q28 -28 28 -62l-1 -233l-32 -32l-233 -1q-34 0 -62 28l-35 35l49 49l128 -4z" />
<glyph horiz-adv-x="525" d="M61 334q0 34 28 62l35 35l49 -49l-4 -128l218 218l78 -78l-218 -218l128 4l49 -49l-35 -35q-28 -28 -62 -28l-233 1l-32 32z" />
</font>
</defs>
</svg>
